<?xml version="1.0" standalone="no"?>
<!DOCTYPE svg PUBLIC "-//W3C//DTD SVG 1.1//EN" "http://www.w3.org/Graphics/SVG/1.1/DTD/svg11.dtd" >
<svg xmlns="http://www.w3.org/2000/svg">
<metadata>Generated by IcoMoon</metadata>
<defs>
<font id="feather" horiz-adv-x="1024">
<font-face units-per-em="1024" ascent="960" descent="-64" />
<missing-glyph horiz-adv-x="1024" />
<glyph unicode="&#x20;" horiz-adv-x="512" d="" />
<glyph unicode="&#xe900;" glyph-name="activity" d="M640 21.333c-18.389 0-34.688 11.733-40.448 29.184l-215.552 646.571-87.509-262.571c-5.803-17.451-22.101-29.184-40.491-29.184h-170.667c-23.552 0-42.667 19.115-42.667 42.667s19.115 42.667 42.667 42.667h139.904l118.272 354.816c5.845 17.451 22.101 29.184 40.491 29.184s34.688-11.733 40.491-29.184l215.509-646.571 87.552 262.571c5.803 17.451 22.059 29.184 40.448 29.184h170.667c23.595 0 42.667-19.115 42.667-42.667s-19.072-42.667-42.667-42.667h-139.904l-118.272-354.816c-5.803-17.451-22.101-29.184-40.491-29.184z" />
<glyph unicode="&#xe901;" glyph-name="airplay" d="M853.333 192h-42.667c-23.595 0-42.667 19.072-42.667 42.667s19.072 42.667 42.667 42.667h42.667c23.552 0 42.667 19.115 42.667 42.667v426.667c0 23.509-19.115 42.667-42.667 42.667h-682.667c-23.509 0-42.667-19.157-42.667-42.667v-426.667c0-23.552 19.157-42.667 42.667-42.667h42.667c23.552 0 42.667-19.072 42.667-42.667s-19.115-42.667-42.667-42.667h-42.667c-70.571 0-128 57.429-128 128v426.667c0 70.571 57.429 128 128 128h682.667c70.571 0 128-57.429 128-128v-426.667c0-70.571-57.429-128-128-128zM725.333 21.333h-426.667c-16.555 0-31.616 9.6-38.656 24.576s-4.736 32.683 5.888 45.397l213.333 256c16.213 19.413 49.323 19.413 65.536 0l213.333-256c10.581-12.757 12.885-30.464 5.845-45.397-6.997-14.976-22.059-24.576-38.613-24.576zM389.76 106.667h244.48l-122.24 146.645-122.24-146.645z" />
<glyph unicode="&#xe902;" glyph-name="alert-circle" d="M512-21.333c-258.773 0-469.333 210.56-469.333 469.333s210.56 469.333 469.333 469.333 469.333-210.56 469.333-469.333-210.56-469.333-469.333-469.333zM512 832c-211.712 0-384-172.288-384-384 0-211.755 172.288-384 384-384 211.755 0 384 172.245 384 384 0 211.712-172.245 384-384 384zM512 405.333c-23.552 0-42.667 19.115-42.667 42.667v170.667c0 23.552 19.115 42.667 42.667 42.667s42.667-19.115 42.667-42.667v-170.667c0-23.552-19.115-42.667-42.667-42.667zM512.427 234.667c-23.552 0-42.88 19.072-42.88 42.667s18.901 42.667 42.453 42.667h0.427c23.552 0 42.667-19.072 42.667-42.667s-19.115-42.667-42.667-42.667z" />
<glyph unicode="&#xe903;" glyph-name="alert-octagon" d="M688.64-21.333h-353.28c-11.307 0-22.187 4.48-30.165 12.501l-250.027 250.027c-8.021 8.021-12.501 18.859-12.501 30.165v353.28c0 11.307 4.48 22.187 12.501 30.165l250.027 250.027c7.979 8.021 18.859 12.501 30.165 12.501h353.28c11.349 0 22.187-4.48 30.165-12.501l250.027-250.027c8.021-7.979 12.501-18.859 12.501-30.165v-353.28c0-11.349-4.48-22.187-12.501-30.165l-250.027-250.027c-8.021-8.021-18.859-12.501-30.165-12.501zM353.024 64h317.952l225.024 225.024v317.952l-225.024 225.024h-317.952l-225.024-225.024v-317.952l225.024-225.024zM512 405.333c-23.552 0-42.667 19.115-42.667 42.667v170.667c0 23.552 19.115 42.667 42.667 42.667s42.667-19.115 42.667-42.667v-170.667c0-23.552-19.115-42.667-42.667-42.667zM512.427 234.667c-23.552 0-42.88 19.072-42.88 42.667s18.901 42.667 42.453 42.667h0.427c23.552 0 42.667-19.072 42.667-42.667s-19.115-42.667-42.667-42.667z" />
<glyph unicode="&#xe904;" glyph-name="alert-triangle" d="M150.613 21.333c-22.443 0.256-44.075 6.187-63.061 17.109-61.099 35.328-82.133 113.749-46.848 174.891l361.728 603.904c0.043 0.085 0.085 0.171 0.128 0.213 10.667 17.579 25.557 32.469 43.093 43.051 29.141 17.707 63.531 23.083 96.768 14.848 33.195-8.107 61.269-28.672 78.976-57.899l361.515-603.563c11.349-19.627 17.28-41.259 17.536-63.147 0.384-34.261-12.629-66.517-36.523-90.965-23.936-24.405-55.936-38.101-90.069-38.443h-723.243zM475.563 773.248l-361.301-603.179c-11.435-19.797-4.395-45.952 16-57.728 6.272-3.627 13.483-5.589 20.821-5.675h722.304c10.965 0.128 21.589 4.651 29.568 12.843 7.979 8.107 12.288 18.901 12.16 30.293-0.085 7.296-2.091 14.507-5.76 20.864l-361.003 602.709c-12.117 19.883-38.4 26.411-58.453 14.123-5.845-3.499-10.795-8.448-14.336-14.251zM512 362.667c-23.552 0-42.667 19.072-42.667 42.667v170.667c0 23.552 19.115 42.667 42.667 42.667s42.667-19.115 42.667-42.667v-170.667c0-23.595-19.115-42.667-42.667-42.667zM512.427 192c-23.552 0-42.88 19.072-42.88 42.667s18.901 42.667 42.453 42.667h0.427c23.552 0 42.667-19.072 42.667-42.667s-19.115-42.667-42.667-42.667z" />
<glyph unicode="&#xe905;" glyph-name="align-center" d="M768 490.667h-512c-23.552 0-42.667 19.115-42.667 42.667s19.115 42.667 42.667 42.667h512c23.595 0 42.667-19.115 42.667-42.667s-19.072-42.667-42.667-42.667zM896 661.333h-768c-23.552 0-42.667 19.115-42.667 42.667s19.115 42.667 42.667 42.667h768c23.595 0 42.667-19.115 42.667-42.667s-19.072-42.667-42.667-42.667zM896 320h-768c-23.552 0-42.667 19.072-42.667 42.667s19.115 42.667 42.667 42.667h768c23.595 0 42.667-19.072 42.667-42.667s-19.072-42.667-42.667-42.667zM768 149.333h-512c-23.552 0-42.667 19.072-42.667 42.667s19.115 42.667 42.667 42.667h512c23.595 0 42.667-19.072 42.667-42.667s-19.072-42.667-42.667-42.667z" />
<glyph unicode="&#xe906;" glyph-name="align-justify" d="M896 490.667h-768c-23.552 0-42.667 19.115-42.667 42.667s19.115 42.667 42.667 42.667h768c23.595 0 42.667-19.115 42.667-42.667s-19.072-42.667-42.667-42.667zM896 661.333h-768c-23.552 0-42.667 19.115-42.667 42.667s19.115 42.667 42.667 42.667h768c23.595 0 42.667-19.115 42.667-42.667s-19.072-42.667-42.667-42.667zM896 320h-768c-23.552 0-42.667 19.072-42.667 42.667s19.115 42.667 42.667 42.667h768c23.595 0 42.667-19.072 42.667-42.667s-19.072-42.667-42.667-42.667zM896 149.333h-768c-23.552 0-42.667 19.072-42.667 42.667s19.115 42.667 42.667 42.667h768c23.595 0 42.667-19.072 42.667-42.667s-19.072-42.667-42.667-42.667z" />
<glyph unicode="&#xe907;" glyph-name="align-left" d="M725.333 490.667h-597.333c-23.552 0-42.667 19.115-42.667 42.667s19.115 42.667 42.667 42.667h597.333c23.595 0 42.667-19.115 42.667-42.667s-19.072-42.667-42.667-42.667zM896 661.333h-768c-23.552 0-42.667 19.115-42.667 42.667s19.115 42.667 42.667 42.667h768c23.595 0 42.667-19.115 42.667-42.667s-19.072-42.667-42.667-42.667zM896 320h-768c-23.552 0-42.667 19.072-42.667 42.667s19.115 42.667 42.667 42.667h768c23.595 0 42.667-19.072 42.667-42.667s-19.072-42.667-42.667-42.667zM725.333 149.333h-597.333c-23.552 0-42.667 19.072-42.667 42.667s19.115 42.667 42.667 42.667h597.333c23.595 0 42.667-19.072 42.667-42.667s-19.072-42.667-42.667-42.667z" />
<glyph unicode="&#xe908;" glyph-name="align-right" d="M896 490.667h-597.333c-23.552 0-42.667 19.115-42.667 42.667s19.115 42.667 42.667 42.667h597.333c23.595 0 42.667-19.115 42.667-42.667s-19.072-42.667-42.667-42.667zM896 661.333h-768c-23.552 0-42.667 19.115-42.667 42.667s19.115 42.667 42.667 42.667h768c23.595 0 42.667-19.115 42.667-42.667s-19.072-42.667-42.667-42.667zM896 320h-768c-23.552 0-42.667 19.072-42.667 42.667s19.115 42.667 42.667 42.667h768c23.595 0 42.667-19.072 42.667-42.667s-19.072-42.667-42.667-42.667zM896 149.333h-597.333c-23.552 0-42.667 19.072-42.667 42.667s19.115 42.667 42.667 42.667h597.333c23.595 0 42.667-19.072 42.667-42.667s-19.072-42.667-42.667-42.667z" />
<glyph unicode="&#xe909;" glyph-name="anchor" d="M512 576c-94.123 0-170.667 76.544-170.667 170.667s76.544 170.667 170.667 170.667c94.123 0 170.667-76.544 170.667-170.667s-76.544-170.667-170.667-170.667zM512 832c-47.061 0-85.333-38.272-85.333-85.333s38.272-85.333 85.333-85.333c47.061 0 85.333 38.272 85.333 85.333s-38.272 85.333-85.333 85.333zM512-21.333c-23.552 0-42.667 19.072-42.667 42.667v597.333c0 23.552 19.115 42.667 42.667 42.667s42.667-19.115 42.667-42.667v-597.333c0-23.595-19.115-42.667-42.667-42.667zM512-21.333c-258.773 0-469.333 210.56-469.333 469.333 0 23.552 19.115 42.667 42.667 42.667h128c23.552 0 42.667-19.115 42.667-42.667s-19.115-42.667-42.667-42.667h-82.987c21.291-191.744 184.32-341.333 381.653-341.333s360.32 149.589 381.611 341.333h-82.944c-23.595 0-42.667 19.115-42.667 42.667s19.072 42.667 42.667 42.667h128c23.595 0 42.667-19.115 42.667-42.667 0-258.773-210.56-469.333-469.333-469.333z" />
<glyph unicode="&#xe90a;" glyph-name="aperture" d="M512-21.333c-258.773 0-469.333 210.56-469.333 469.333s210.56 469.333 469.333 469.333 469.333-210.56 469.333-469.333-210.56-469.333-469.333-469.333zM512 832c-211.712 0-384-172.288-384-384 0-211.755 172.288-384 384-384 211.755 0 384 172.245 384 384 0 211.712-172.245 384-384 384zM855.509 151.893c-14.763 0-29.099 7.637-36.992 21.333l-244.907 424.107c-11.776 20.395-4.779 46.507 15.616 58.283 20.309 11.776 46.464 4.779 58.283-15.616l244.907-424.107c11.776-20.437 4.779-46.507-15.616-58.283-6.699-3.883-14.037-5.717-21.291-5.717zM903.253 576h-489.813c-23.552 0-42.667 19.115-42.667 42.667s19.115 42.667 42.667 42.667h489.813c23.595 0 42.667-19.115 42.667-42.667s-19.072-42.667-42.667-42.667zM314.837 405.333c-7.211 0-14.592 1.835-21.291 5.717-20.437 11.776-27.392 37.888-15.616 58.283l244.907 424.107c11.776 20.437 37.931 27.435 58.283 15.616 20.437-11.776 27.435-37.888 15.616-58.283l-244.907-424.107c-7.893-13.696-22.229-21.333-36.992-21.333zM413.483 234.667c-14.763 0-29.099 7.637-36.992 21.333l-244.907 424.107c-11.776 20.395-4.779 46.507 15.616 58.283 20.352 11.819 46.507 4.779 58.283-15.616l244.907-424.107c11.776-20.437 4.779-46.507-15.616-58.283-6.699-3.883-14.080-5.717-21.291-5.717zM610.56 234.667h-489.813c-23.552 0-42.667 19.072-42.667 42.667s19.115 42.667 42.667 42.667h489.813c23.595 0 42.667-19.072 42.667-42.667s-19.115-42.667-42.667-42.667zM464.171-18.773c-7.211 0-14.592 1.835-21.291 5.717-20.437 11.776-27.392 37.888-15.616 58.283l244.907 424.107c11.776 20.437 37.931 27.435 58.283 15.616 20.437-11.776 27.435-37.888 15.616-58.283l-244.907-424.107c-7.893-13.739-22.229-21.333-36.992-21.333z" />
<glyph unicode="&#xe90b;" glyph-name="archive" d="M896 21.333h-768c-23.552 0-42.667 19.072-42.667 42.667v554.667c0 23.552 19.115 42.667 42.667 42.667s42.667-19.115 42.667-42.667v-512h682.667v512c0 23.552 19.072 42.667 42.667 42.667s42.667-19.115 42.667-42.667v-554.667c0-23.595-19.072-42.667-42.667-42.667zM981.333 576h-938.667c-23.552 0-42.667 19.115-42.667 42.667v213.333c0 23.552 19.115 42.667 42.667 42.667h938.667c23.595 0 42.667-19.115 42.667-42.667v-213.333c0-23.552-19.072-42.667-42.667-42.667zM85.333 661.333h853.333v128h-853.333v-128zM597.333 405.333h-170.667c-23.552 0-42.667 19.115-42.667 42.667s19.115 42.667 42.667 42.667h170.667c23.595 0 42.667-19.115 42.667-42.667s-19.072-42.667-42.667-42.667z" />
<glyph unicode="&#xe90c;" glyph-name="arrow-down" d="M512 106.667c-23.552 0-42.667 19.072-42.667 42.667v597.333c0 23.552 19.115 42.667 42.667 42.667s42.667-19.115 42.667-42.667v-597.333c0-23.595-19.115-42.667-42.667-42.667zM512 106.667c-10.923 0-21.845 4.181-30.165 12.501l-298.667 298.667c-16.683 16.683-16.683 43.648 0 60.331s43.648 16.683 60.331 0l268.501-268.501 268.501 268.501c16.683 16.683 43.648 16.683 60.331 0s16.683-43.648 0-60.331l-298.667-298.667c-8.32-8.32-19.243-12.501-30.165-12.501z" />
<glyph unicode="&#xe90d;" glyph-name="arrow-down-circle" d="M512-21.333c-258.773 0-469.333 210.56-469.333 469.333s210.56 469.333 469.333 469.333 469.333-210.56 469.333-469.333-210.56-469.333-469.333-469.333zM512 832c-211.712 0-384-172.288-384-384 0-211.755 172.288-384 384-384 211.755 0 384 172.245 384 384 0 211.712-172.245 384-384 384zM512 234.667c-10.923 0-21.845 4.181-30.165 12.501l-170.667 170.667c-16.683 16.683-16.683 43.648 0 60.331s43.648 16.683 60.331 0l140.501-140.501 140.501 140.501c16.683 16.683 43.648 16.683 60.331 0s16.683-43.648 0-60.331l-170.667-170.667c-8.32-8.32-19.243-12.501-30.165-12.501zM512 234.667c-23.552 0-42.667 19.072-42.667 42.667v341.333c0 23.552 19.115 42.667 42.667 42.667s42.667-19.115 42.667-42.667v-341.333c0-23.595-19.115-42.667-42.667-42.667z" />
<glyph unicode="&#xe90e;" glyph-name="arrow-down-left" d="M298.667 192c-10.923 0-21.845 4.181-30.165 12.501-16.683 16.683-16.683 43.648 0 60.331l426.667 426.667c16.683 16.683 43.648 16.683 60.331 0s16.683-43.648 0-60.331l-426.667-426.667c-8.32-8.32-19.243-12.501-30.165-12.501zM725.333 192h-426.667c-23.552 0-42.667 19.072-42.667 42.667v426.667c0 23.552 19.115 42.667 42.667 42.667s42.667-19.115 42.667-42.667v-384h384c23.595 0 42.667-19.072 42.667-42.667s-19.072-42.667-42.667-42.667z" />
<glyph unicode="&#xe90f;" glyph-name="arrow-down-right" d="M725.333 192c-10.923 0-21.845 4.181-30.165 12.501l-426.667 426.667c-16.683 16.683-16.683 43.648 0 60.331s43.648 16.683 60.331 0l426.667-426.667c16.683-16.683 16.683-43.648 0-60.331-8.32-8.32-19.243-12.501-30.165-12.501zM725.333 192h-426.667c-23.552 0-42.667 19.072-42.667 42.667s19.115 42.667 42.667 42.667h384v384c0 23.552 19.072 42.667 42.667 42.667s42.667-19.115 42.667-42.667v-426.667c0-23.595-19.072-42.667-42.667-42.667z" />
<glyph unicode="&#xe910;" glyph-name="arrow-left" d="M810.667 405.333h-597.333c-23.552 0-42.667 19.115-42.667 42.667s19.115 42.667 42.667 42.667h597.333c23.595 0 42.667-19.115 42.667-42.667s-19.072-42.667-42.667-42.667zM512 106.667c-10.923 0-21.845 4.181-30.165 12.501l-298.667 298.667c-16.683 16.683-16.683 43.648 0 60.331l298.667 298.667c16.683 16.683 43.648 16.683 60.331 0s16.683-43.648 0-60.331l-268.501-268.501 268.501-268.501c16.683-16.683 16.683-43.648 0-60.331-8.32-8.32-19.243-12.501-30.165-12.501z" />
<glyph unicode="&#xe911;" glyph-name="arrow-left-circle" d="M512-21.333c-258.773 0-469.333 210.56-469.333 469.333s210.56 469.333 469.333 469.333 469.333-210.56 469.333-469.333-210.56-469.333-469.333-469.333zM512 832c-211.712 0-384-172.288-384-384 0-211.755 172.288-384 384-384 211.755 0 384 172.245 384 384 0 211.712-172.245 384-384 384zM512 234.667c-10.923 0-21.845 4.181-30.165 12.501l-170.667 170.667c-16.683 16.683-16.683 43.648 0 60.331l170.667 170.667c16.683 16.683 43.648 16.683 60.331 0s16.683-43.648 0-60.331l-140.501-140.501 140.501-140.501c16.683-16.683 16.683-43.648 0-60.331-8.32-8.32-19.243-12.501-30.165-12.501zM682.667 405.333h-341.333c-23.552 0-42.667 19.115-42.667 42.667s19.115 42.667 42.667 42.667h341.333c23.595 0 42.667-19.115 42.667-42.667s-19.072-42.667-42.667-42.667z" />
<glyph unicode="&#xe912;" glyph-name="arrow-right" d="M810.667 405.333h-597.333c-23.552 0-42.667 19.115-42.667 42.667s19.115 42.667 42.667 42.667h597.333c23.595 0 42.667-19.115 42.667-42.667s-19.072-42.667-42.667-42.667zM512 106.667c-10.923 0-21.845 4.181-30.165 12.501-16.683 16.683-16.683 43.648 0 60.331l268.501 268.501-268.501 268.501c-16.683 16.683-16.683 43.648 0 60.331s43.648 16.683 60.331 0l298.667-298.667c16.683-16.683 16.683-43.648 0-60.331l-298.667-298.667c-8.32-8.32-19.243-12.501-30.165-12.501z" />
<glyph unicode="&#xe913;" glyph-name="arrow-right-circle" d="M512-21.333c-258.773 0-469.333 210.56-469.333 469.333s210.56 469.333 469.333 469.333 469.333-210.56 469.333-469.333-210.56-469.333-469.333-469.333zM512 832c-211.712 0-384-172.288-384-384 0-211.755 172.288-384 384-384 211.755 0 384 172.245 384 384 0 211.712-172.245 384-384 384zM512 234.667c-10.923 0-21.845 4.181-30.165 12.501-16.683 16.683-16.683 43.648 0 60.331l140.501 140.501-140.501 140.501c-16.683 16.683-16.683 43.648 0 60.331s43.648 16.683 60.331 0l170.667-170.667c16.683-16.683 16.683-43.648 0-60.331l-170.667-170.667c-8.32-8.32-19.243-12.501-30.165-12.501zM682.667 405.333h-341.333c-23.552 0-42.667 19.115-42.667 42.667s19.115 42.667 42.667 42.667h341.333c23.595 0 42.667-19.115 42.667-42.667s-19.072-42.667-42.667-42.667z" />
<glyph unicode="&#xe914;" glyph-name="arrow-up" d="M512 106.667c-23.552 0-42.667 19.072-42.667 42.667v597.333c0 23.552 19.115 42.667 42.667 42.667s42.667-19.115 42.667-42.667v-597.333c0-23.595-19.115-42.667-42.667-42.667zM810.667 405.333c-10.923 0-21.845 4.181-30.165 12.501l-268.501 268.501-268.501-268.501c-16.683-16.683-43.648-16.683-60.331 0s-16.683 43.648 0 60.331l298.667 298.667c16.683 16.683 43.648 16.683 60.331 0l298.667-298.667c16.683-16.683 16.683-43.648 0-60.331-8.32-8.32-19.243-12.501-30.165-12.501z" />
<glyph unicode="&#xe915;" glyph-name="arrow-up-circle" d="M512-21.333c-258.773 0-469.333 210.56-469.333 469.333s210.56 469.333 469.333 469.333 469.333-210.56 469.333-469.333-210.56-469.333-469.333-469.333zM512 832c-211.712 0-384-172.288-384-384 0-211.755 172.288-384 384-384 211.755 0 384 172.245 384 384 0 211.712-172.245 384-384 384zM682.667 405.333c-10.923 0-21.845 4.181-30.165 12.501l-140.501 140.501-140.501-140.501c-16.683-16.683-43.648-16.683-60.331 0s-16.683 43.648 0 60.331l170.667 170.667c16.683 16.683 43.648 16.683 60.331 0l170.667-170.667c16.683-16.683 16.683-43.648 0-60.331-8.32-8.32-19.243-12.501-30.165-12.501zM512 234.667c-23.552 0-42.667 19.072-42.667 42.667v341.333c0 23.552 19.115 42.667 42.667 42.667s42.667-19.115 42.667-42.667v-341.333c0-23.595-19.115-42.667-42.667-42.667z" />
<glyph unicode="&#xe916;" glyph-name="arrow-up-left" d="M725.333 192c-10.923 0-21.845 4.181-30.165 12.501l-426.667 426.667c-16.683 16.683-16.683 43.648 0 60.331s43.648 16.683 60.331 0l426.667-426.667c16.683-16.683 16.683-43.648 0-60.331-8.32-8.32-19.243-12.501-30.165-12.501zM298.667 192c-23.552 0-42.667 19.072-42.667 42.667v426.667c0 23.552 19.115 42.667 42.667 42.667h426.667c23.595 0 42.667-19.115 42.667-42.667s-19.072-42.667-42.667-42.667h-384v-384c0-23.595-19.115-42.667-42.667-42.667z" />
<glyph unicode="&#xe917;" glyph-name="arrow-up-right" d="M298.667 192c-10.923 0-21.845 4.181-30.165 12.501-16.683 16.683-16.683 43.648 0 60.331l426.667 426.667c16.683 16.683 43.648 16.683 60.331 0s16.683-43.648 0-60.331l-426.667-426.667c-8.32-8.32-19.243-12.501-30.165-12.501zM725.333 192c-23.595 0-42.667 19.072-42.667 42.667v384h-384c-23.552 0-42.667 19.115-42.667 42.667s19.115 42.667 42.667 42.667h426.667c23.595 0 42.667-19.115 42.667-42.667v-426.667c0-23.595-19.072-42.667-42.667-42.667z" />
<glyph unicode="&#xe918;" glyph-name="at-sign" d="M512 234.667c-117.632 0-213.333 95.701-213.333 213.333s95.701 213.333 213.333 213.333 213.333-95.701 213.333-213.333-95.701-213.333-213.333-213.333zM512 576c-70.571 0-128-57.429-128-128s57.429-128 128-128 128 57.429 128 128-57.429 128-128 128zM512-21.376c-258.773 0-469.333 210.56-469.333 469.333 0 125.355 48.811 243.243 137.429 331.861 88.661 88.661 206.507 137.472 331.904 137.515 258.816 0 469.333-210.56 469.333-469.333v-42.667c0-94.123-76.544-170.667-170.667-170.667s-170.667 76.544-170.667 170.667v213.333c0 23.552 19.072 42.667 42.667 42.667s42.667-19.115 42.667-42.667v-213.333c0-47.061 38.272-85.333 85.333-85.333s85.333 38.272 85.333 85.333v42.667c0 211.712-172.288 384-384 384-102.571 0-199.040-39.979-271.531-112.512-72.533-72.533-112.469-168.96-112.469-271.531 0-211.712 172.288-384 384-384 83.883 0 166.827 28.075 233.472 79.104 18.688 14.293 45.525 10.795 59.776-7.979 14.336-18.688 10.795-45.44-7.979-59.776-81.408-62.336-182.741-96.683-285.269-96.683z" />
<glyph unicode="&#xe919;" glyph-name="award" d="M512 277.333c-188.203 0-341.333 153.131-341.333 341.333s153.131 341.333 341.333 341.333 341.333-153.131 341.333-341.333-153.131-341.333-341.333-341.333zM512 874.667c-141.184 0-256-114.816-256-256s114.816-256 256-256 256 114.816 256 256-114.816 256-256 256zM725.333-64c-7.595 0-15.147 2.005-21.973 6.101l-191.36 114.816-191.36-114.816c-14.037-8.405-31.701-8.064-45.355 0.896-13.696 9.003-21.035 25.045-18.859 41.301l51.627 388.693c3.115 23.381 24.491 39.68 47.915 36.651 23.339-3.115 39.765-24.533 36.651-47.915l-39.979-300.971 137.429 82.475c13.525 8.064 30.379 8.064 43.904 0l137.472-82.475-40.021 301.355c-3.072 23.381 13.355 44.8 36.651 47.915 23.595 3.157 44.843-13.312 47.915-36.651l51.627-389.12c2.176-16.256-5.163-32.299-18.859-41.301-7.083-4.608-15.275-6.955-23.424-6.955z" />
<glyph unicode="&#xe91a;" glyph-name="bar-chart" d="M512 64c-23.552 0-42.667 19.072-42.667 42.667v426.667c0 23.552 19.115 42.667 42.667 42.667s42.667-19.115 42.667-42.667v-426.667c0-23.595-19.115-42.667-42.667-42.667zM768 64c-23.595 0-42.667 19.072-42.667 42.667v682.667c0 23.552 19.072 42.667 42.667 42.667s42.667-19.115 42.667-42.667v-682.667c0-23.595-19.072-42.667-42.667-42.667zM256 64c-23.552 0-42.667 19.072-42.667 42.667v170.667c0 23.595 19.115 42.667 42.667 42.667s42.667-19.072 42.667-42.667v-170.667c0-23.595-19.115-42.667-42.667-42.667z" />
<glyph unicode="&#xe91b;" glyph-name="bar-chart-2" d="M768 64c-23.595 0-42.667 19.072-42.667 42.667v426.667c0 23.552 19.072 42.667 42.667 42.667s42.667-19.115 42.667-42.667v-426.667c0-23.595-19.072-42.667-42.667-42.667zM512 64c-23.552 0-42.667 19.072-42.667 42.667v682.667c0 23.552 19.115 42.667 42.667 42.667s42.667-19.115 42.667-42.667v-682.667c0-23.595-19.115-42.667-42.667-42.667zM256 64c-23.552 0-42.667 19.072-42.667 42.667v256c0 23.595 19.115 42.667 42.667 42.667s42.667-19.072 42.667-42.667v-256c0-23.595-19.115-42.667-42.667-42.667z" />
<glyph unicode="&#xe91c;" glyph-name="battery" d="M725.333 149.333h-597.333c-70.571 0-128 57.429-128 128v341.333c0 70.571 57.429 128 128 128h597.333c70.571 0 128-57.429 128-128v-341.333c0-70.571-57.429-128-128-128zM128 661.333c-23.509 0-42.667-19.157-42.667-42.667v-341.333c0-23.552 19.157-42.667 42.667-42.667h597.333c23.552 0 42.667 19.115 42.667 42.667v341.333c0 23.509-19.115 42.667-42.667 42.667h-597.333zM981.333 362.667c-23.595 0-42.667 19.072-42.667 42.667v85.333c0 23.552 19.072 42.667 42.667 42.667s42.667-19.115 42.667-42.667v-85.333c0-23.595-19.072-42.667-42.667-42.667z" />
<glyph unicode="&#xe91d;" glyph-name="battery-charging" d="M725.333 149.333h-136.107c-23.595 0-42.667 19.072-42.667 42.667s19.072 42.667 42.667 42.667h136.107c23.552 0 42.667 19.115 42.667 42.667v341.333c0 23.509-19.115 42.667-42.667 42.667h-85.333c-23.595 0-42.667 19.115-42.667 42.667s19.072 42.667 42.667 42.667h85.333c70.571 0 128-57.429 128-128v-341.333c0-70.571-57.429-128-128-128zM213.333 149.333h-85.333c-70.571 0-128 57.429-128 128v341.333c0 70.571 57.429 128 128 128h136.107c23.552 0 42.667-19.115 42.667-42.667s-19.115-42.667-42.667-42.667h-136.107c-23.509 0-42.667-19.157-42.667-42.667v-341.333c0-23.552 19.157-42.667 42.667-42.667h85.333c23.552 0 42.667-19.072 42.667-42.667s-19.115-42.667-42.667-42.667zM981.333 362.667c-23.595 0-42.667 19.072-42.667 42.667v85.333c0 23.552 19.072 42.667 42.667 42.667s42.667-19.115 42.667-42.667v-85.333c0-23.595-19.072-42.667-42.667-42.667zM383.957 149.333c-8.107 0-16.341 2.347-23.637 7.168-19.584 13.099-24.875 39.552-11.819 59.179l126.421 189.653h-176.256c-15.744 0-30.208 8.661-37.632 22.528s-6.613 30.72 2.133 43.776l170.667 256c13.056 19.584 39.552 24.917 59.179 11.819 19.584-13.056 24.875-39.552 11.819-59.179l-126.421-189.611h176.256c15.744 0 30.208-8.661 37.632-22.528s6.571-30.72-2.133-43.776l-170.667-256c-8.235-12.373-21.76-19.029-35.541-19.029z" />
<glyph unicode="&#xe91e;" glyph-name="bell" d="M896 192h-768c-18.773 0-35.413 12.288-40.832 30.293-5.461 18.005 1.536 37.461 17.152 47.872 0.555 0.427 109.013 80.981 109.013 348.501 0 164.693 133.973 298.667 298.667 298.667 164.651 0 298.667-133.973 298.667-298.667 0-267.52 108.459-348.075 109.525-348.885 15.104-10.795 21.803-30.293 16.128-47.957s-21.76-29.824-40.32-29.824zM219.307 277.333h585.344c-38.571 63.232-79.317 170.496-79.317 341.333 0 117.632-95.701 213.333-213.333 213.333s-213.333-95.701-213.333-213.333c0-170.837-40.747-278.101-79.36-341.333zM511.787-21.12c-21.803 0-43.819 5.547-64 17.195-19.285 11.221-35.371 27.307-46.507 46.549-11.819 20.395-4.864 46.507 15.531 58.283 20.437 11.861 46.464 4.821 58.325-15.531 3.712-6.357 9.045-11.733 15.488-15.445 20.352-11.861 46.507-4.779 58.325 15.488 11.861 20.395 37.973 27.264 58.325 15.445 20.395-11.819 27.349-37.931 15.445-58.283-23.723-40.875-66.773-63.701-110.933-63.701z" />
<glyph unicode="&#xe91f;" glyph-name="bell-off" d="M511.787-21.12c-21.803 0-43.819 5.547-64 17.195-19.285 11.221-35.371 27.307-46.507 46.549-11.819 20.395-4.864 46.507 15.531 58.283 20.437 11.861 46.464 4.821 58.325-15.531 3.712-6.357 9.045-11.733 15.488-15.445 20.352-11.861 46.507-4.779 58.325 15.488 11.861 20.395 37.973 27.264 58.325 15.445 20.395-11.819 27.349-37.931 15.445-58.283-23.723-40.875-66.773-63.701-110.933-63.701zM794.837 362.667c-18.731 0-35.968 12.459-41.131 31.403-20.053 73.515-29.568 149.333-28.373 225.28 0.384 23.339 19.413 41.984 42.667 41.984 0.213 0 0.469 0 0.725 0 23.509-0.384 42.325-19.797 41.941-43.349-1.109-67.925 7.424-135.68 25.387-201.429 6.229-22.741-7.211-46.208-29.909-52.395-3.797-0.981-7.552-1.493-11.307-1.493zM725.333 192h-597.333c-18.773 0-35.413 12.288-40.832 30.293-5.461 18.005 1.536 37.461 17.152 47.872 0.555 0.427 109.013 80.981 109.013 348.501-0.085 29.312 4.309 58.581 12.971 86.784 6.912 22.528 30.805 35.072 53.333 28.245 22.528-6.955 35.157-30.805 28.245-53.333-6.187-20.011-9.259-40.747-9.216-61.611 0-170.88-40.747-278.144-79.36-341.419h506.027c23.595 0 42.667-19.072 42.667-42.667s-19.072-42.667-42.667-42.667zM768 576c0 0-0.043 0-0.085 0-23.552 0.043-42.624 19.157-42.581 42.709 0.085 56.96-22.059 110.592-62.251 150.955-40.235 40.363-93.781 62.635-150.784 62.72-0.128 0-0.213 0-0.341 0-42.283 0-83.2-12.416-118.357-35.883-19.669-13.056-46.123-7.723-59.179 11.819-13.056 19.584-7.808 46.080 11.819 59.179 49.237 32.853 106.539 50.219 165.717 50.219 0.171 0 0.299 0 0.469 0 164.693-0.256 298.496-134.4 298.24-299.093-0.043-23.552-19.115-42.624-42.667-42.624zM981.333-64c-10.923 0-21.845 4.181-30.165 12.501l-938.667 938.667c-16.683 16.683-16.683 43.648 0 60.331s43.648 16.683 60.331 0l938.667-938.667c16.683-16.683 16.683-43.648 0-60.331-8.32-8.32-19.243-12.501-30.165-12.501z" />
<glyph unicode="&#xe920;" glyph-name="bluetooth" d="M512-64c-5.504 0-11.051 1.024-16.341 3.243-15.915 6.571-26.325 22.187-26.325 39.424v366.336l-161.835-161.835c-16.683-16.683-43.648-16.683-60.331 0s-16.683 43.648 0 60.331l204.501 204.501-204.501 204.501c-16.683 16.683-16.683 43.648 0 60.331s43.648 16.683 60.331 0l161.835-161.835v366.336c0 17.237 10.411 32.811 26.325 39.424 15.957 6.613 34.261 2.987 46.507-9.259l234.667-234.667c16.683-16.683 16.683-43.648 0-60.331l-204.501-204.501 204.501-204.501c16.683-16.683 16.683-43.648 0-60.331l-234.667-234.667c-8.149-8.149-19.072-12.501-30.165-12.501zM554.667 345.003v-263.339l131.669 131.669-131.669 131.669zM554.667 814.336v-263.339l131.669 131.669-131.669 131.669z" />
<glyph unicode="&#xe921;" glyph-name="bold" d="M597.333 405.333h-341.333c-23.552 0-42.667 19.115-42.667 42.667v341.333c0 23.552 19.115 42.667 42.667 42.667h341.333c117.632 0 213.333-95.701 213.333-213.333s-95.701-213.333-213.333-213.333zM298.667 490.667h298.667c70.571 0 128 57.429 128 128s-57.429 128-128 128h-298.667v-256zM640 64h-384c-23.552 0-42.667 19.072-42.667 42.667v341.333c0 23.552 19.115 42.667 42.667 42.667h384c117.632 0 213.333-95.701 213.333-213.333s-95.701-213.333-213.333-213.333zM298.667 149.333h341.333c70.571 0 128 57.429 128 128s-57.429 128-128 128h-341.333v-256z" />
<glyph unicode="&#xe922;" glyph-name="book" d="M170.667 85.333c-23.552 0-42.667 19.072-42.667 42.667 0 82.347 66.987 149.333 149.333 149.333h576c23.595 0 42.667-19.072 42.667-42.667s-19.072-42.667-42.667-42.667h-576c-35.285 0-64-28.715-64-64 0-23.595-19.115-42.667-42.667-42.667zM853.333-21.333h-576c-82.347 0-149.333 66.987-149.333 149.333v640c0 82.347 66.987 149.333 149.333 149.333h576c23.595 0 42.667-19.115 42.667-42.667v-853.333c0-23.595-19.072-42.667-42.667-42.667zM277.333 832c-35.285 0-64-28.715-64-64v-640c0-35.285 28.715-64 64-64h533.333v768h-533.333z" />
<glyph unicode="&#xe923;" glyph-name="bookmark" d="M810.667 21.333c-8.747 0-17.408 2.688-24.789 7.979l-273.877 195.584-273.877-195.627c-12.971-9.344-30.123-10.581-44.331-3.243s-23.125 21.973-23.125 37.973v682.667c0 70.571 57.429 128 128 128h426.667c70.571 0 128-57.429 128-128v-682.667c0-16-8.917-30.635-23.125-37.973-6.187-3.115-12.885-4.693-19.541-4.693zM512 320c8.704 0 17.365-2.688 24.789-7.979l231.211-165.12v599.765c0 23.509-19.115 42.667-42.667 42.667h-426.667c-23.509 0-42.667-19.157-42.667-42.667v-599.765l231.211 165.12c7.424 5.291 16.085 7.979 24.789 7.979z" />
<glyph unicode="&#xe924;" glyph-name="book-open" d="M512 21.333c-23.552 0-42.667 19.072-42.667 42.667 0 47.061-38.272 85.333-85.333 85.333h-298.667c-23.552 0-42.667 19.072-42.667 42.667v640c0 23.552 19.115 42.667 42.667 42.667h256c117.632 0 213.333-95.701 213.333-213.333v-597.333c0-23.595-19.115-42.667-42.667-42.667zM128 234.667h256c31.061 0 60.203-8.32 85.333-22.912v449.579c0 70.571-57.429 128-128 128h-213.333v-554.667zM512 21.333c-23.552 0-42.667 19.072-42.667 42.667v597.333c0 117.632 95.701 213.333 213.333 213.333h256c23.595 0 42.667-19.115 42.667-42.667v-640c0-23.595-19.072-42.667-42.667-42.667h-298.667c-47.061 0-85.333-38.272-85.333-85.333 0-23.595-19.115-42.667-42.667-42.667zM682.667 789.333c-70.571 0-128-57.429-128-128v-449.579c25.131 14.592 54.272 22.912 85.333 22.912h256v554.667h-213.333z" />
<glyph unicode="&#xe925;" glyph-name="box" d="M512.043-21.205c-22.144 0-44.288 5.717-64 17.067l-298.539 170.581c-39.595 22.869-64.128 65.323-64.171 110.848v341.376c0 45.568 24.576 87.979 64 110.763l298.837 170.752c39.253 22.741 88.32 22.699 127.829-0.085l298.496-170.581c39.595-22.869 64.128-65.28 64.171-110.805v-341.419c-0.043-45.525-24.576-87.979-63.957-110.72l-298.88-170.795c-19.627-11.307-41.685-16.981-63.787-16.981zM511.957 831.915c-7.381 0-14.72-1.92-21.291-5.675l-298.837-170.795c-12.971-7.509-21.163-21.675-21.163-36.779v-341.333c0-15.104 8.192-29.312 21.333-36.907l298.496-170.539c13.269-7.637 29.611-7.68 42.88-0.085l298.795 170.752c12.971 7.509 21.12 21.675 21.163 36.821v341.291c-0.043 15.104-8.192 29.269-21.333 36.864l-298.496 170.581c-6.699 3.84-14.123 5.803-21.547 5.803zM896 277.333v0zM512 404.907c-7.381 0-14.763 1.92-21.333 5.717l-372.48 215.467c-20.437 11.819-27.392 37.888-15.616 58.325 11.819 20.437 37.973 27.392 58.283 15.573l351.147-203.093 351.104 203.093c20.437 11.861 46.549 4.821 58.283-15.573 11.819-20.395 4.821-46.464-15.531-58.283l-372.523-215.467c-6.571-3.84-13.952-5.76-21.333-5.76zM512-24.747c-23.552 0-42.667 19.072-42.667 42.667v430.080c0 23.552 19.115 42.667 42.667 42.667s42.667-19.115 42.667-42.667v-430.080c0-23.595-19.115-42.667-42.667-42.667z" />
<glyph unicode="&#xe926;" glyph-name="briefcase" d="M853.333 21.333h-682.667c-70.571 0-128 57.429-128 128v426.667c0 70.571 57.429 128 128 128h682.667c70.571 0 128-57.429 128-128v-426.667c0-70.571-57.429-128-128-128zM170.667 618.667c-23.509 0-42.667-19.157-42.667-42.667v-426.667c0-23.552 19.157-42.667 42.667-42.667h682.667c23.552 0 42.667 19.115 42.667 42.667v426.667c0 23.509-19.115 42.667-42.667 42.667h-682.667zM682.667 21.333c-23.595 0-42.667 19.072-42.667 42.667v682.667c0 23.509-19.115 42.667-42.667 42.667h-170.667c-23.509 0-42.667-19.157-42.667-42.667v-682.667c0-23.595-19.115-42.667-42.667-42.667s-42.667 19.072-42.667 42.667v682.667c0 70.571 57.429 128 128 128h170.667c70.571 0 128-57.429 128-128v-682.667c0-23.595-19.072-42.667-42.667-42.667z" />
<glyph unicode="&#xe927;" glyph-name="calendar" d="M810.667-21.333h-597.333c-70.571 0-128 57.429-128 128v597.333c0 70.571 57.429 128 128 128h597.333c70.571 0 128-57.429 128-128v-597.333c0-70.571-57.429-128-128-128zM213.333 746.667c-23.509 0-42.667-19.157-42.667-42.667v-597.333c0-23.552 19.157-42.667 42.667-42.667h597.333c23.552 0 42.667 19.115 42.667 42.667v597.333c0 23.509-19.115 42.667-42.667 42.667h-597.333zM682.667 661.333c-23.595 0-42.667 19.115-42.667 42.667v170.667c0 23.552 19.072 42.667 42.667 42.667s42.667-19.115 42.667-42.667v-170.667c0-23.552-19.072-42.667-42.667-42.667zM341.333 661.333c-23.552 0-42.667 19.115-42.667 42.667v170.667c0 23.552 19.115 42.667 42.667 42.667s42.667-19.115 42.667-42.667v-170.667c0-23.552-19.115-42.667-42.667-42.667zM896 490.667h-768c-23.552 0-42.667 19.115-42.667 42.667s19.115 42.667 42.667 42.667h768c23.595 0 42.667-19.115 42.667-42.667s-19.072-42.667-42.667-42.667z" />
<glyph unicode="&#xe928;" glyph-name="camera" d="M896 21.333h-768c-70.571 0-128 57.429-128 128v469.333c0 70.571 57.429 128 128 128h147.84l72.661 109.013c7.936 11.861 21.248 18.987 35.499 18.987h256c14.251 0 27.563-7.125 35.499-18.987l72.661-109.013h147.84c70.571 0 128-57.429 128-128v-469.333c0-70.571-57.429-128-128-128zM128 661.333c-23.509 0-42.667-19.157-42.667-42.667v-469.333c0-23.552 19.157-42.667 42.667-42.667h768c23.552 0 42.667 19.115 42.667 42.667v469.333c0 23.509-19.115 42.667-42.667 42.667h-170.667c-14.251 0-27.563 7.125-35.499 18.987l-72.661 109.013h-210.347l-72.661-109.013c-7.936-11.861-21.248-18.987-35.499-18.987h-170.667zM512 192c-117.632 0-213.333 95.701-213.333 213.333s95.701 213.333 213.333 213.333 213.333-95.701 213.333-213.333-95.701-213.333-213.333-213.333zM512 533.333c-70.571 0-128-57.429-128-128s57.429-128 128-128 128 57.429 128 128-57.429 128-128 128z" />
<glyph unicode="&#xe929;" glyph-name="camera-off" d="M981.333-64c-10.923 0-21.845 4.181-30.165 12.501l-938.667 938.667c-16.683 16.683-16.683 43.648 0 60.331s43.648 16.683 60.331 0l938.667-938.667c16.683-16.683 16.683-43.648 0-60.331-8.32-8.32-19.243-12.501-30.165-12.501zM896 21.333h-768c-70.571 0-128 57.429-128 128v469.333c0 70.571 57.429 128 128 128h128c23.552 0 42.667-19.115 42.667-42.667s-19.115-42.667-42.667-42.667h-128c-23.509 0-42.667-19.157-42.667-42.667v-469.333c0-23.552 19.157-42.667 42.667-42.667h768c23.595 0 42.667-19.072 42.667-42.667s-19.072-42.667-42.667-42.667zM981.333 177.493c-23.595 0-42.667 19.072-42.667 42.667v398.507c0 23.509-19.115 42.667-42.667 42.667h-170.667c-14.251 0-27.563 7.125-35.499 18.987l-72.661 109.013h-233.173c-23.552 0-42.667 19.115-42.667 42.667s19.115 42.667 42.667 42.667h256c14.251 0 27.563-7.125 35.499-18.987l72.661-109.013h147.84c70.571 0 128-57.429 128-128v-398.507c0-23.595-19.072-42.667-42.667-42.667zM510.635 191.061c-42.581 0-84.139 12.757-120.021 37.333-47.019 32.171-78.72 80.725-89.216 136.747-10.496 55.979 1.451 112.725 33.664 159.787 15.019 21.888 33.707 40.619 55.595 55.595 19.499 13.269 46.037 8.277 59.307-11.136 13.312-19.456 8.32-45.995-11.136-59.307-13.141-8.96-24.363-20.181-33.365-33.323-19.328-28.203-26.453-62.251-20.181-95.872 6.315-33.579 25.301-62.763 53.504-82.048 28.245-19.328 62.251-26.539 95.872-20.181 33.621 6.272 62.72 25.301 82.048 53.504 13.269 19.456 39.936 24.448 59.307 11.136 19.456-13.312 24.405-39.893 11.136-59.307-32.213-47.061-80.768-78.72-136.789-89.216-13.227-2.517-26.496-3.712-39.723-3.712z" />
<glyph unicode="&#xe92a;" glyph-name="cast" d="M251.691 64c-19.84 0-37.632 13.909-41.771 34.133-13.696 67.157-65.92 119.424-133.12 133.163-23.083 4.693-37.973 27.264-33.28 50.347 4.736 23.083 27.307 38.059 50.347 33.237 100.736-20.565 179.115-98.944 199.68-199.68 4.693-23.125-10.197-45.611-33.28-50.347-2.901-0.555-5.76-0.853-8.576-0.853zM424.491 64c-21.419 0-39.936 16.128-42.325 37.973-17.792 159.744-141.781 283.733-301.525 301.483-23.424 2.645-40.32 23.723-37.675 47.104 2.603 23.424 23.808 40.448 47.104 37.675 199.723-22.229 354.688-177.195 376.875-376.875 2.645-23.424-14.251-44.501-37.675-47.104-1.621-0.171-3.2-0.256-4.779-0.256zM853.333 64h-256c-23.595 0-42.667 19.072-42.667 42.667s19.072 42.667 42.667 42.667h256c23.552 0 42.667 19.115 42.667 42.667v512c0 23.509-19.115 42.667-42.667 42.667h-682.667c-23.509 0-42.667-19.157-42.667-42.667v-85.333c0-23.552-19.115-42.667-42.667-42.667s-42.667 19.115-42.667 42.667v85.333c0 70.571 57.429 128 128 128h682.667c70.571 0 128-57.429 128-128v-512c0-70.571-57.429-128-128-128zM85.76 64c-23.552 0-42.88 19.072-42.88 42.667s18.901 42.667 42.453 42.667h0.427c23.552 0 42.667-19.072 42.667-42.667s-19.115-42.667-42.667-42.667z" />
<glyph unicode="&#xe92b;" glyph-name="check" d="M384 192c-10.923 0-21.845 4.181-30.165 12.501l-213.333 213.333c-16.683 16.683-16.683 43.648 0 60.331s43.648 16.683 60.331 0l183.168-183.168 439.168 439.168c16.683 16.683 43.648 16.683 60.331 0s16.683-43.648 0-60.331l-469.333-469.333c-8.32-8.32-19.243-12.501-30.165-12.501z" />
<glyph unicode="&#xe92c;" glyph-name="check-circle" d="M512-21.077c-0.085 0-0.171 0-0.256 0-258.773 0.128-469.205 210.773-469.077 469.589 0.128 258.688 210.688 469.077 469.333 469.077 0.085 0 0.171 0 0.256 0 66.133-0.043 130.347-13.696 190.763-40.619 21.504-9.6 31.189-34.816 21.589-56.32-9.557-21.504-34.688-31.147-56.32-21.632-49.408 22.016-101.973 33.195-156.075 33.237-0.085 0-0.128 0-0.213 0-211.669 0-383.915-172.117-384-383.787-0.085-211.755 172.032-384.085 383.787-384.213 0.043 0 0.128 0 0.213 0 211.627 0 383.915 172.117 384 383.787v39.211c0 23.552 19.072 42.667 42.667 42.667s42.667-19.115 42.667-42.667v-39.253c-0.128-258.688-210.645-469.077-469.333-469.077zM512 319.573c-11.307 0-22.187 4.48-30.165 12.501l-128 128c-16.683 16.683-16.683 43.648 0 60.331s43.648 16.683 60.331 0l97.835-97.792 396.501 396.885c16.683 16.725 43.648 16.683 60.331 0.043 16.683-16.683 16.683-43.648 0-60.331l-426.667-427.093c-7.979-8.021-18.816-12.544-30.165-12.544z" />
<glyph unicode="&#xe92d;" glyph-name="check-square" d="M512 320c-10.923 0-21.845 4.181-30.165 12.501l-128 128c-16.683 16.683-16.683 43.648 0 60.331s43.648 16.683 60.331 0l97.835-97.835 396.501 396.501c16.683 16.683 43.648 16.683 60.331 0s16.683-43.648 0-60.331l-426.667-426.667c-8.32-8.32-19.243-12.501-30.165-12.501zM810.667 21.333h-597.333c-70.571 0-128 57.429-128 128v597.333c0 70.571 57.429 128 128 128h469.333c23.595 0 42.667-19.115 42.667-42.667s-19.072-42.667-42.667-42.667h-469.333c-23.509 0-42.667-19.157-42.667-42.667v-597.333c0-23.552 19.157-42.667 42.667-42.667h597.333c23.552 0 42.667 19.115 42.667 42.667v298.667c0 23.552 19.072 42.667 42.667 42.667s42.667-19.115 42.667-42.667v-298.667c0-70.571-57.429-128-128-128z" />
<glyph unicode="&#xe92e;" glyph-name="chevron-down" d="M512 277.333c-10.923 0-21.845 4.181-30.165 12.501l-256 256c-16.683 16.683-16.683 43.648 0 60.331s43.648 16.683 60.331 0l225.835-225.835 225.835 225.835c16.683 16.683 43.648 16.683 60.331 0s16.683-43.648 0-60.331l-256-256c-8.32-8.32-19.243-12.501-30.165-12.501z" />
<glyph unicode="&#xe92f;" glyph-name="chevron-left" d="M640 149.333c-10.923 0-21.845 4.181-30.165 12.501l-256 256c-16.683 16.683-16.683 43.648 0 60.331l256 256c16.683 16.683 43.648 16.683 60.331 0s16.683-43.648 0-60.331l-225.835-225.835 225.835-225.835c16.683-16.683 16.683-43.648 0-60.331-8.32-8.32-19.243-12.501-30.165-12.501z" />
<glyph unicode="&#xe930;" glyph-name="chevron-right" d="M384 149.333c-10.923 0-21.845 4.181-30.165 12.501-16.683 16.683-16.683 43.648 0 60.331l225.835 225.835-225.835 225.835c-16.683 16.683-16.683 43.648 0 60.331s43.648 16.683 60.331 0l256-256c16.683-16.683 16.683-43.648 0-60.331l-256-256c-8.32-8.32-19.243-12.501-30.165-12.501z" />
<glyph unicode="&#xe931;" glyph-name="chevrons-down" d="M512 149.333c-10.923 0-21.845 4.181-30.165 12.501l-213.333 213.333c-16.683 16.683-16.683 43.648 0 60.331s43.648 16.683 60.331 0l183.168-183.168 183.168 183.168c16.683 16.683 43.648 16.683 60.331 0s16.683-43.648 0-60.331l-213.333-213.333c-8.32-8.32-19.243-12.501-30.165-12.501zM512 448c-10.923 0-21.845 4.181-30.165 12.501l-213.333 213.333c-16.683 16.683-16.683 43.648 0 60.331s43.648 16.683 60.331 0l183.168-183.168 183.168 183.168c16.683 16.683 43.648 16.683 60.331 0s16.683-43.648 0-60.331l-213.333-213.333c-8.32-8.32-19.243-12.501-30.165-12.501z" />
<glyph unicode="&#xe932;" glyph-name="chevrons-left" d="M469.333 192c-10.923 0-21.845 4.181-30.165 12.501l-213.333 213.333c-16.683 16.683-16.683 43.648 0 60.331l213.333 213.333c16.683 16.683 43.648 16.683 60.331 0s16.683-43.648 0-60.331l-183.168-183.168 183.168-183.168c16.683-16.683 16.683-43.648 0-60.331-8.32-8.32-19.243-12.501-30.165-12.501zM768 192c-10.923 0-21.845 4.181-30.165 12.501l-213.333 213.333c-16.683 16.683-16.683 43.648 0 60.331l213.333 213.333c16.683 16.683 43.648 16.683 60.331 0s16.683-43.648 0-60.331l-183.168-183.168 183.168-183.168c16.683-16.683 16.683-43.648 0-60.331-8.32-8.32-19.243-12.501-30.165-12.501z" />
<glyph unicode="&#xe933;" glyph-name="chevrons-right" d="M554.667 192c-10.923 0-21.845 4.181-30.165 12.501-16.683 16.683-16.683 43.648 0 60.331l183.168 183.168-183.168 183.168c-16.683 16.683-16.683 43.648 0 60.331s43.648 16.683 60.331 0l213.333-213.333c16.683-16.683 16.683-43.648 0-60.331l-213.333-213.333c-8.32-8.32-19.243-12.501-30.165-12.501zM256 192c-10.923 0-21.845 4.181-30.165 12.501-16.683 16.683-16.683 43.648 0 60.331l183.168 183.168-183.168 183.168c-16.683 16.683-16.683 43.648 0 60.331s43.648 16.683 60.331 0l213.333-213.333c16.683-16.683 16.683-43.648 0-60.331l-213.333-213.333c-8.32-8.32-19.243-12.501-30.165-12.501z" />
<glyph unicode="&#xe934;" glyph-name="chevrons-up" d="M725.333 448c-10.923 0-21.845 4.181-30.165 12.501l-183.168 183.168-183.168-183.168c-16.683-16.683-43.648-16.683-60.331 0s-16.683 43.648 0 60.331l213.333 213.333c16.683 16.683 43.648 16.683 60.331 0l213.333-213.333c16.683-16.683 16.683-43.648 0-60.331-8.32-8.32-19.243-12.501-30.165-12.501zM725.333 149.333c-10.923 0-21.845 4.181-30.165 12.501l-183.168 183.168-183.168-183.168c-16.683-16.683-43.648-16.683-60.331 0s-16.683 43.648 0 60.331l213.333 213.333c16.683 16.683 43.648 16.683 60.331 0l213.333-213.333c16.683-16.683 16.683-43.648 0-60.331-8.32-8.32-19.243-12.501-30.165-12.501z" />
<glyph unicode="&#xe935;" glyph-name="chevron-up" d="M768 277.333c-10.923 0-21.845 4.181-30.165 12.501l-225.835 225.835-225.835-225.835c-16.683-16.683-43.648-16.683-60.331 0s-16.683 43.648 0 60.331l256 256c16.683 16.683 43.648 16.683 60.331 0l256-256c16.683-16.683 16.683-43.648 0-60.331-8.32-8.32-19.243-12.501-30.165-12.501z" />
<glyph unicode="&#xe936;" glyph-name="chrome" d="M512-21.333c-258.773 0-469.333 210.56-469.333 469.333s210.56 469.333 469.333 469.333 469.333-210.56 469.333-469.333-210.56-469.333-469.333-469.333zM512 832c-211.712 0-384-172.288-384-384 0-211.755 172.288-384 384-384 211.755 0 384 172.245 384 384 0 211.712-172.245 384-384 384zM512 234.667c-117.632 0-213.333 95.701-213.333 213.333s95.701 213.333 213.333 213.333 213.333-95.701 213.333-213.333-95.701-213.333-213.333-213.333zM512 576c-70.571 0-128-57.429-128-128s57.429-128 128-128 128 57.429 128 128-57.429 128-128 128zM903.253 576h-391.253c-23.552 0-42.667 19.115-42.667 42.667s19.115 42.667 42.667 42.667h391.253c23.595 0 42.667-19.115 42.667-42.667s-19.072-42.667-42.667-42.667zM364.416 320c-14.763 0-29.099 7.637-36.992 21.333l-195.84 338.731c-11.776 20.395-4.779 46.507 15.616 58.325 20.352 11.819 46.507 4.779 58.283-15.616l195.84-338.773c11.776-20.395 4.821-46.464-15.573-58.283-6.741-3.883-14.080-5.717-21.333-5.717zM464.171-18.773c-7.211 0-14.549 1.835-21.291 5.717-20.437 11.776-27.435 37.888-15.659 58.283l195.413 338.773c11.776 20.437 37.803 27.435 58.283 15.616 20.437-11.776 27.435-37.888 15.616-58.283l-195.413-338.773c-7.851-13.696-22.187-21.333-36.949-21.333z" />
<glyph unicode="&#xe937;" glyph-name="circle" d="M512-21.333c-258.773 0-469.333 210.56-469.333 469.333s210.56 469.333 469.333 469.333 469.333-210.56 469.333-469.333-210.56-469.333-469.333-469.333zM512 832c-211.712 0-384-172.288-384-384 0-211.755 172.288-384 384-384 211.755 0 384 172.245 384 384 0 211.712-172.245 384-384 384z" />
<glyph unicode="&#xe938;" glyph-name="clipboard" d="M768-21.333h-512c-70.571 0-128 57.429-128 128v597.333c0 70.571 57.429 128 128 128h85.333c23.552 0 42.667-19.115 42.667-42.667s-19.115-42.667-42.667-42.667h-85.333c-23.509 0-42.667-19.157-42.667-42.667v-597.333c0-23.552 19.157-42.667 42.667-42.667h512c23.552 0 42.667 19.115 42.667 42.667v597.333c0 23.509-19.115 42.667-42.667 42.667h-85.333c-23.595 0-42.667 19.115-42.667 42.667s19.072 42.667 42.667 42.667h85.333c70.571 0 128-57.429 128-128v-597.333c0-70.571-57.429-128-128-128zM640 661.333h-256c-47.061 0-85.333 38.272-85.333 85.333v85.333c0 47.061 38.272 85.333 85.333 85.333h256c47.061 0 85.333-38.272 85.333-85.333v-85.333c0-47.061-38.272-85.333-85.333-85.333zM384 832h-0.043l0.043-85.333h256v85.333h-256z" />
<glyph unicode="&#xe939;" glyph-name="clock" d="M512-21.333c-258.773 0-469.333 210.56-469.333 469.333s210.56 469.333 469.333 469.333 469.333-210.56 469.333-469.333-210.56-469.333-469.333-469.333zM512 832c-211.712 0-384-172.288-384-384 0-211.755 172.288-384 384-384 211.755 0 384 172.245 384 384 0 211.712-172.245 384-384 384zM682.624 320c-6.4 0-12.928 1.451-19.029 4.48l-170.667 85.333c-14.464 7.253-23.595 22.016-23.595 38.187v256c0 23.552 19.115 42.667 42.667 42.667s42.667-19.115 42.667-42.667v-229.632l147.072-73.557c21.077-10.539 29.611-36.181 19.072-57.259-7.467-14.933-22.528-23.552-38.187-23.552z" />
<glyph unicode="&#xe93a;" glyph-name="cloud" d="M383.701 64c-175.104 0-327.979 118.357-371.755 288-25.643 99.328-11.093 202.667 41.003 291.029s135.467 151.125 234.795 176.811c99.285 25.685 202.667 11.051 291.029-41.003 78.677-46.421 137.088-117.632 167.040-202.837h22.187c141.184 0 256-114.816 256-256s-114.816-256-256-256h-384c-0.085 0-0.213 0-0.299 0zM383.701 746.709c-24.661 0-49.707-3.072-74.624-9.515-77.269-19.925-142.123-68.779-182.613-137.515s-51.84-149.12-31.915-226.347c34.091-131.925 152.96-224 289.195-224 0.085 0 0.128 0 0.213 0h384.043c94.123 0 170.667 76.544 170.667 170.667s-76.544 170.667-170.667 170.667h-53.76c-19.456 0-36.437 13.184-41.301 32-34.731 134.528-156.331 224.043-289.237 224.043z" />
<glyph unicode="&#xe93b;" glyph-name="cloud-drizzle" d="M341.333 21.333c-23.552 0-42.667 19.072-42.667 42.667v85.333c0 23.595 19.115 42.667 42.667 42.667s42.667-19.072 42.667-42.667v-85.333c0-23.595-19.115-42.667-42.667-42.667zM341.333 277.333c-23.552 0-42.667 19.072-42.667 42.667v85.333c0 23.552 19.115 42.667 42.667 42.667s42.667-19.115 42.667-42.667v-85.333c0-23.595-19.115-42.667-42.667-42.667zM682.667 21.333c-23.595 0-42.667 19.072-42.667 42.667v85.333c0 23.595 19.072 42.667 42.667 42.667s42.667-19.072 42.667-42.667v-85.333c0-23.595-19.072-42.667-42.667-42.667zM682.667 277.333c-23.595 0-42.667 19.072-42.667 42.667v85.333c0 23.552 19.072 42.667 42.667 42.667s42.667-19.115 42.667-42.667v-85.333c0-23.595-19.072-42.667-42.667-42.667zM512-64c-23.552 0-42.667 19.072-42.667 42.667v85.333c0 23.595 19.115 42.667 42.667 42.667s42.667-19.072 42.667-42.667v-85.333c0-23.595-19.115-42.667-42.667-42.667zM512 192c-23.552 0-42.667 19.072-42.667 42.667v85.333c0 23.595 19.115 42.667 42.667 42.667s42.667-19.072 42.667-42.667v-85.333c0-23.595-19.115-42.667-42.667-42.667zM853.376 209.92c-16.469 0-32.128 9.557-39.125 25.557-9.472 21.589 0.384 46.763 21.973 56.192 41.771 18.304 73.856 51.755 90.496 94.208 16.597 42.453 15.659 88.832-2.645 130.603-27.179 61.995-88.448 102.101-156.117 102.187h-53.717c-19.456 0-36.437 13.184-41.301 32-41.216 159.445-204.459 255.616-363.904 214.485-159.403-41.173-255.659-204.373-214.485-363.819 16.043-62.208 52.523-118.571 102.741-158.635 18.432-14.72 21.419-41.557 6.699-59.947-14.72-18.432-41.6-21.419-59.947-6.699-64.555 51.541-111.445 123.989-132.096 203.989-52.949 204.971 70.784 414.805 275.797 467.755 194.176 50.048 392.576-58.112 458.027-243.797h22.229c101.589-0.128 193.493-60.288 234.24-153.301 27.435-62.635 28.843-132.224 3.925-195.925-24.875-63.659-73.088-113.877-135.723-141.312-5.547-2.432-11.349-3.541-17.067-3.541z" />
<glyph unicode="&#xe93c;" glyph-name="cloud-lightning" d="M810.624 196.267c-19.883 0-37.675 13.952-41.771 34.176-4.651 23.083 10.24 45.611 33.323 50.304 92.203 18.731 152.021 109.056 133.291 201.259-16.085 79.189-86.443 136.661-167.253 136.661-0.043 0-0.128 0-0.171 0h-53.803c-19.456 0-36.437 13.184-41.301 32-41.259 159.445-204.459 255.616-363.904 214.485-77.227-19.968-142.080-68.779-182.613-137.515-40.491-68.736-51.84-149.12-31.872-226.347 20.437-79.061 73.088-147.115 144.512-186.624 20.608-11.435 28.117-37.376 16.683-57.984-11.392-20.523-37.333-28.16-57.984-16.683-91.861 50.816-159.616 138.24-185.856 239.957-25.643 99.328-11.093 202.667 41.003 291.029s135.467 151.168 234.752 176.811c194.133 50.176 392.619-58.112 458.112-243.797h22.229c0.085 0 0.171 0 0.256 0 121.259 0 226.688-86.187 250.88-205.056 28.032-138.325-61.653-273.749-199.979-301.824-2.859-0.597-5.76-0.853-8.533-0.853zM469.291-64c-8.107 0-16.341 2.347-23.637 7.168-19.584 13.099-24.875 39.552-11.819 59.179l126.464 189.653h-176.299c-15.744 0-30.208 8.661-37.632 22.528s-6.613 30.72 2.133 43.776l170.667 256c13.056 19.627 39.467 24.917 59.179 11.819 19.627-13.056 24.917-39.552 11.819-59.179l-126.421-189.611h176.256c15.744 0 30.208-8.661 37.632-22.528s6.571-30.72-2.133-43.776l-170.667-256c-8.235-12.373-21.76-19.029-35.541-19.029z" />
<glyph unicode="&#xe93d;" glyph-name="cloud-off" d="M377.771 63.957c-139.136 0-267.477 75.52-335.275 198.187-49.664 89.771-61.355 193.493-32.981 292.053s93.44 180.181 183.211 229.803c20.608 11.392 46.549 3.925 57.941-16.683 11.435-20.651 3.925-46.592-16.683-57.984-69.803-38.613-120.405-102.101-142.507-178.731-22.059-76.672-12.971-157.355 25.643-227.115 53.547-96.896 154.667-157.141 266.197-154.155h384.683c19.797 0.043 39.339 3.499 57.984 10.24 22.315 8.021 46.635-3.456 54.656-25.6 8.021-22.187-3.456-46.635-25.6-54.656-27.989-10.112-57.259-15.275-86.997-15.317h-384.043c-2.091-0.043-4.181-0.043-6.229-0.043zM964.693 194.133c-5.589 0-11.221 1.067-16.64 3.371-21.717 9.173-31.829 34.219-22.656 55.936 36.651 86.656-3.968 187.051-90.581 223.744-21.205 8.96-43.563 13.483-66.475 13.483-0.128 0-0.171 0-0.299 0h-53.803c-19.499 0-36.523 13.269-41.344 32.171-31.189 122.795-137.003 212.821-263.211 224-23.467 2.091-40.832 22.784-38.741 46.251s22.741 40.704 46.251 38.741c151.040-13.355 279.339-114.517 328.704-255.829h22.101c33.835 1.92 68.224-6.741 100.096-20.267 129.963-55.040 190.933-205.568 135.936-335.573-6.912-16.299-22.741-26.027-39.339-26.027zM981.333-64c-10.923 0-21.845 4.181-30.165 12.501l-938.667 938.667c-16.683 16.683-16.683 43.648 0 60.331s43.648 16.683 60.331 0l938.667-938.667c16.683-16.683 16.683-43.648 0-60.331-8.32-8.32-19.243-12.501-30.165-12.501z" />
<glyph unicode="&#xe93e;" glyph-name="cloud-rain" d="M682.667 21.333c-23.595 0-42.667 19.072-42.667 42.667v341.333c0 23.552 19.072 42.667 42.667 42.667s42.667-19.115 42.667-42.667v-341.333c0-23.595-19.072-42.667-42.667-42.667zM341.333 21.333c-23.552 0-42.667 19.072-42.667 42.667v341.333c0 23.552 19.115 42.667 42.667 42.667s42.667-19.115 42.667-42.667v-341.333c0-23.595-19.115-42.667-42.667-42.667zM512-64c-23.552 0-42.667 19.072-42.667 42.667v341.333c0 23.595 19.115 42.667 42.667 42.667s42.667-19.072 42.667-42.667v-341.333c0-23.595-19.115-42.667-42.667-42.667zM853.376 209.92c-16.469 0-32.128 9.557-39.125 25.557-9.472 21.589 0.384 46.763 21.973 56.192 41.771 18.304 73.856 51.755 90.496 94.208 16.597 42.453 15.659 88.832-2.645 130.603-27.179 61.995-88.448 102.101-156.117 102.187h-53.717c-19.456 0-36.437 13.184-41.301 32-41.216 159.445-204.459 255.616-363.904 214.485-159.403-41.173-255.659-204.373-214.485-363.819 16.043-62.208 52.523-118.571 102.741-158.635 18.432-14.72 21.419-41.557 6.699-59.947-14.72-18.432-41.6-21.419-59.947-6.699-64.555 51.541-111.445 123.989-132.096 203.989-52.949 204.971 70.784 414.805 275.797 467.755 194.176 50.048 392.576-58.112 458.027-243.797h22.229c101.589-0.128 193.493-60.288 234.24-153.301 27.435-62.635 28.843-132.224 3.925-195.925-24.875-63.659-73.088-113.877-135.723-141.312-5.547-2.432-11.349-3.541-17.067-3.541z" />
<glyph unicode="&#xe93f;" glyph-name="cloud-snow" d="M853.376 167.253c-16.469 0-32.128 9.557-39.125 25.557-9.472 21.589 0.384 46.763 21.973 56.192 41.771 18.304 73.856 51.755 90.496 94.208 16.597 42.453 15.659 88.832-2.645 130.603-27.179 61.995-88.448 102.101-156.117 102.187h-53.717c-19.456 0-36.437 13.184-41.301 32-41.216 159.403-204.459 255.659-363.904 214.485-159.403-41.173-255.659-204.373-214.485-363.819 16.043-62.208 52.523-118.571 102.741-158.635 18.432-14.72 21.419-41.557 6.699-59.947-14.72-18.432-41.6-21.376-59.947-6.699-64.555 51.541-111.445 123.989-132.096 203.989-52.949 204.971 70.784 414.805 275.797 467.755 194.176 50.091 392.576-58.112 458.027-243.797h22.229c101.589-0.128 193.493-60.288 234.24-153.301 27.435-62.635 28.843-132.224 3.925-195.925-24.875-63.659-73.088-113.877-135.723-141.312-5.547-2.432-11.349-3.541-17.067-3.541zM341.76 234.667c-23.552 0-42.88 19.072-42.88 42.667s18.901 42.667 42.453 42.667h0.427c23.552 0 42.667-19.072 42.667-42.667s-19.115-42.667-42.667-42.667zM341.76 64c-23.552 0-42.88 19.072-42.88 42.667s18.901 42.667 42.453 42.667h0.427c23.552 0 42.667-19.072 42.667-42.667s-19.115-42.667-42.667-42.667zM512.427 149.333c-23.552 0-42.88 19.072-42.88 42.667s18.901 42.667 42.453 42.667h0.427c23.552 0 42.667-19.072 42.667-42.667s-19.115-42.667-42.667-42.667zM512.427-21.333c-23.552 0-42.88 19.072-42.88 42.667s18.901 42.667 42.453 42.667h0.427c23.552 0 42.667-19.072 42.667-42.667s-19.115-42.667-42.667-42.667zM683.093 234.667c-23.595 0-42.88 19.072-42.88 42.667s18.859 42.667 42.453 42.667h0.427c23.595 0 42.667-19.072 42.667-42.667s-19.072-42.667-42.667-42.667zM683.093 64c-23.595 0-42.88 19.072-42.88 42.667s18.859 42.667 42.453 42.667h0.427c23.595 0 42.667-19.072 42.667-42.667s-19.072-42.667-42.667-42.667z" />
<glyph unicode="&#xe940;" glyph-name="code" d="M682.667 149.333c-10.923 0-21.845 4.181-30.165 12.501-16.683 16.683-16.683 43.648 0 60.331l225.835 225.835-225.835 225.835c-16.683 16.683-16.683 43.648 0 60.331s43.648 16.683 60.331 0l256-256c16.683-16.683 16.683-43.648 0-60.331l-256-256c-8.32-8.32-19.243-12.501-30.165-12.501zM341.333 149.333c-10.923 0-21.845 4.181-30.165 12.501l-256 256c-16.683 16.683-16.683 43.648 0 60.331l256 256c16.683 16.683 43.648 16.683 60.331 0s16.683-43.648 0-60.331l-225.835-225.835 225.835-225.835c16.683-16.683 16.683-43.648 0-60.331-8.32-8.32-19.243-12.501-30.165-12.501z" />
<glyph unicode="&#xe941;" glyph-name="codepen" d="M512-21.333c-8.064 0-16.171 2.304-23.253 6.869l-426.667 277.333c-12.117 7.893-19.413 21.333-19.413 35.797v298.667c0 14.421 7.296 27.904 19.413 35.755l426.667 277.333c14.123 9.216 32.384 9.216 46.507 0l426.667-277.333c12.117-7.851 19.413-21.333 19.413-35.755v-298.667c0-14.464-7.296-27.904-19.413-35.797l-426.667-277.333c-7.083-4.565-15.189-6.869-23.253-6.869zM128 321.835l384-249.643 384 249.643v252.373l-384 249.6-384-249.6v-252.373zM512-21.333c-23.552 0-42.667 19.072-42.667 42.667v277.333c0 23.595 19.115 42.667 42.667 42.667s42.667-19.072 42.667-42.667v-277.333c0-23.595-19.115-42.667-42.667-42.667zM512 256c-8.576 0-17.109 2.603-24.448 7.723l-426.667 298.667c-19.328 13.525-24.021 40.107-10.496 59.435 13.525 19.285 40.107 24.021 59.435 10.496l402.176-281.557 402.219 281.557c19.2 13.483 45.909 8.832 59.435-10.496 13.483-19.285 8.832-45.909-10.496-59.435l-426.667-298.667c-7.381-5.12-15.915-7.723-24.491-7.723zM938.624 256c-8.448 0-16.939 2.517-24.405 7.723l-402.219 281.515-402.219-281.557c-19.285-13.568-45.867-8.832-59.435 10.496-13.483 19.285-8.832 45.909 10.496 59.435l426.667 298.667c14.677 10.283 34.261 10.283 48.896 0l426.667-298.667c19.328-13.483 24.021-40.107 10.496-59.435-8.235-11.861-21.504-18.176-34.944-18.176zM512 554.667c-23.552 0-42.667 19.115-42.667 42.667v277.333c0 23.552 19.115 42.667 42.667 42.667s42.667-19.115 42.667-42.667v-277.333c0-23.552-19.115-42.667-42.667-42.667z" />
<glyph unicode="&#xe942;" glyph-name="codesandbox" d="M512.043-21.205c-22.144 0-44.288 5.717-64 17.067l-298.539 170.581c-39.595 22.869-64.128 65.323-64.171 110.848v341.376c0 45.568 24.576 87.979 64 110.763l298.837 170.752c39.253 22.741 88.32 22.699 127.829-0.085l298.496-170.581c39.595-22.869 64.128-65.28 64.171-110.805v-341.419c-0.043-45.525-24.576-87.979-63.957-110.72l-298.88-170.795c-19.627-11.307-41.685-16.981-63.787-16.981zM511.957 831.915c-7.381 0-14.72-1.92-21.291-5.675l-298.837-170.795c-12.971-7.509-21.163-21.675-21.163-36.779v-341.333c0-15.104 8.192-29.312 21.333-36.907l298.496-170.539c13.269-7.637 29.611-7.68 42.88-0.085l298.795 170.752c12.971 7.509 21.12 21.675 21.163 36.821v341.291c-0.043 15.104-8.192 29.269-21.333 36.864l-298.496 170.581c-6.699 3.84-14.123 5.803-21.547 5.803zM896 277.333v0zM512 626.773c-7.381 0-14.763 1.92-21.333 5.717l-192 110.933c-20.437 11.819-27.392 37.888-15.616 58.325 11.776 20.395 37.845 27.435 58.283 15.573l170.667-98.603 170.667 98.603c20.352 11.861 46.464 4.821 58.283-15.573 11.776-20.437 4.779-46.507-15.616-58.283l-192-110.933c-6.571-3.84-13.952-5.76-21.333-5.76zM320 72.96c-23.552 0-42.667 19.072-42.667 42.667v196.821l-170.667 98.603c-20.437 11.776-27.392 37.888-15.616 58.283 11.776 20.437 37.845 27.435 58.283 15.616l192-110.891c13.227-7.637 21.333-21.717 21.333-36.949v-221.44c0-23.637-19.115-42.709-42.667-42.709zM704 72.96c-23.595 0-42.667 19.072-42.667 42.667v221.44c0 15.232 8.107 29.355 21.333 36.949l192 110.891c20.352 11.819 46.464 4.821 58.283-15.616 11.776-20.395 4.779-46.507-15.616-58.283l-170.667-98.603v-196.821c0-23.552-19.072-42.624-42.667-42.624zM512 404.907c-7.381 0-14.763 1.92-21.333 5.717l-372.48 215.467c-20.437 11.819-27.392 37.888-15.616 58.325 11.819 20.437 37.973 27.392 58.283 15.573l351.147-203.093 351.104 203.093c20.437 11.861 46.549 4.821 58.283-15.573 11.819-20.395 4.821-46.464-15.531-58.283l-372.523-215.467c-6.571-3.84-13.952-5.76-21.333-5.76zM512-24.747c-23.552 0-42.667 19.072-42.667 42.667v430.080c0 23.552 19.115 42.667 42.667 42.667s42.667-19.115 42.667-42.667v-430.080c0-23.595-19.115-42.667-42.667-42.667z" />
<glyph unicode="&#xe943;" glyph-name="coffee" d="M810.667 234.667h-42.667c-23.595 0-42.667 19.072-42.667 42.667s19.072 42.667 42.667 42.667h42.667c70.571 0 128 57.429 128 128s-57.429 128-128 128h-42.667c-23.595 0-42.667 19.115-42.667 42.667s19.072 42.667 42.667 42.667h42.667c117.632 0 213.333-95.701 213.333-213.333s-95.701-213.333-213.333-213.333zM597.333 21.333h-341.333c-117.632 0-213.333 95.701-213.333 213.333v384c0 23.552 19.115 42.667 42.667 42.667h682.667c23.595 0 42.667-19.115 42.667-42.667v-384c0-117.632-95.701-213.333-213.333-213.333zM128 576v-341.333c0-70.571 57.429-128 128-128h341.333c70.571 0 128 57.429 128 128v341.333h-597.333zM256 746.667c-23.552 0-42.667 19.115-42.667 42.667v128c0 23.552 19.115 42.667 42.667 42.667s42.667-19.115 42.667-42.667v-128c0-23.552-19.115-42.667-42.667-42.667zM426.667 746.667c-23.552 0-42.667 19.115-42.667 42.667v128c0 23.552 19.115 42.667 42.667 42.667s42.667-19.115 42.667-42.667v-128c0-23.552-19.115-42.667-42.667-42.667zM597.333 746.667c-23.595 0-42.667 19.115-42.667 42.667v128c0 23.552 19.072 42.667 42.667 42.667s42.667-19.115 42.667-42.667v-128c0-23.552-19.072-42.667-42.667-42.667z" />
<glyph unicode="&#xe944;" glyph-name="columns" d="M810.667 21.333h-597.333c-70.571 0-128 57.429-128 128v597.333c0 70.571 57.429 128 128 128h597.333c70.571 0 128-57.429 128-128v-597.333c0-70.571-57.429-128-128-128zM554.667 106.667h256c23.552 0 42.667 19.115 42.667 42.667v597.333c0 23.509-19.115 42.667-42.667 42.667h-256v-682.667zM213.333 789.333c-23.509 0-42.667-19.157-42.667-42.667v-597.333c0-23.552 19.157-42.667 42.667-42.667h256v682.667h-256z" />
<glyph unicode="&#xe945;" glyph-name="command" d="M768 21.333c-94.123 0-170.667 76.544-170.667 170.667v85.333h-170.667v-85.333c0-94.123-76.544-170.667-170.667-170.667s-170.667 76.544-170.667 170.667 76.544 170.667 170.667 170.667h85.333v170.667h-85.333c-94.123 0-170.667 76.544-170.667 170.667s76.544 170.667 170.667 170.667 170.667-76.544 170.667-170.667v-85.333h170.667v85.333c0 94.123 76.544 170.667 170.667 170.667s170.667-76.544 170.667-170.667-76.544-170.667-170.667-170.667h-85.333v-170.667h85.333c94.123 0 170.667-76.544 170.667-170.667s-76.544-170.667-170.667-170.667zM682.667 277.333v-85.333c0-47.061 38.272-85.333 85.333-85.333s85.333 38.272 85.333 85.333-38.272 85.333-85.333 85.333h-85.333zM256 277.333c-47.061 0-85.333-38.272-85.333-85.333s38.272-85.333 85.333-85.333 85.333 38.272 85.333 85.333v85.333h-85.333zM426.667 362.667h170.667v170.667h-170.667v-170.667zM682.667 618.667h85.333c47.061 0 85.333 38.272 85.333 85.333s-38.272 85.333-85.333 85.333-85.333-38.272-85.333-85.333v-85.333zM256 789.333c-47.061 0-85.333-38.272-85.333-85.333s38.272-85.333 85.333-85.333h85.333v85.333c0 47.061-38.272 85.333-85.333 85.333z" />
<glyph unicode="&#xe946;" glyph-name="compass" d="M512-21.333c-258.773 0-469.333 210.56-469.333 469.333s210.56 469.333 469.333 469.333 469.333-210.56 469.333-469.333-210.56-469.333-469.333-469.333zM512 832c-211.712 0-384-172.288-384-384 0-211.755 172.288-384 384-384 211.755 0 384 172.245 384 384 0 211.712-172.245 384-384 384zM331.093 224.427c-11.136 0-22.059 4.395-30.165 12.501-11.435 11.435-15.403 28.331-10.325 43.648l90.453 271.36c4.267 12.715 14.251 22.741 26.965 26.965l271.36 90.453c15.36 5.12 32.256 1.109 43.648-10.325 11.435-11.435 15.403-28.331 10.283-43.648l-90.453-271.36c-4.224-12.757-14.208-22.741-26.965-26.965l-271.36-90.453c-4.395-1.493-8.917-2.176-13.44-2.176zM455.253 504.747l-56.747-170.197 170.155 56.747 56.747 170.155-170.155-56.704z" />
<glyph unicode="&#xe947;" glyph-name="copy" d="M853.333-21.333h-384c-70.571 0-128 57.429-128 128v384c0 70.571 57.429 128 128 128h384c70.571 0 128-57.429 128-128v-384c0-70.571-57.429-128-128-128zM469.333 533.333c-23.509 0-42.667-19.157-42.667-42.667v-384c0-23.552 19.157-42.667 42.667-42.667h384c23.552 0 42.667 19.115 42.667 42.667v384c0 23.509-19.115 42.667-42.667 42.667h-384zM213.333 277.333h-42.667c-70.571 0-128 57.429-128 128v384c0 70.571 57.429 128 128 128h384c70.571 0 128-57.429 128-128v-42.667c0-23.552-19.072-42.667-42.667-42.667s-42.667 19.115-42.667 42.667v42.667c0 23.509-19.115 42.667-42.667 42.667h-384c-23.509 0-42.667-19.157-42.667-42.667v-384c0-23.552 19.157-42.667 42.667-42.667h42.667c23.552 0 42.667-19.072 42.667-42.667s-19.115-42.667-42.667-42.667z" />
<glyph unicode="&#xe948;" glyph-name="corner-down-left" d="M384 64c-10.923 0-21.845 4.181-30.165 12.501l-213.333 213.333c-16.683 16.683-16.683 43.648 0 60.331l213.333 213.333c16.683 16.683 43.648 16.683 60.331 0s16.683-43.648 0-60.331l-183.168-183.168 183.168-183.168c16.683-16.683 16.683-43.648 0-60.331-8.32-8.32-19.243-12.501-30.165-12.501zM682.667 277.333h-512c-23.552 0-42.667 19.072-42.667 42.667s19.115 42.667 42.667 42.667h512c70.571 0 128 57.429 128 128v298.667c0 23.552 19.072 42.667 42.667 42.667s42.667-19.115 42.667-42.667v-298.667c0-117.632-95.701-213.333-213.333-213.333z" />
<glyph unicode="&#xe949;" glyph-name="corner-down-right" d="M640 64c-10.923 0-21.845 4.181-30.165 12.501-16.683 16.683-16.683 43.648 0 60.331l183.168 183.168-183.168 183.168c-16.683 16.683-16.683 43.648 0 60.331s43.648 16.683 60.331 0l213.333-213.333c16.683-16.683 16.683-43.648 0-60.331l-213.333-213.333c-8.32-8.32-19.243-12.501-30.165-12.501zM853.333 277.333h-512c-117.632 0-213.333 95.701-213.333 213.333v298.667c0 23.552 19.115 42.667 42.667 42.667s42.667-19.115 42.667-42.667v-298.667c0-70.571 57.429-128 128-128h512c23.595 0 42.667-19.072 42.667-42.667s-19.072-42.667-42.667-42.667z" />
<glyph unicode="&#xe94a;" glyph-name="corner-left-down" d="M384 64c-10.923 0-21.845 4.181-30.165 12.501l-213.333 213.333c-16.683 16.683-16.683 43.648 0 60.331s43.648 16.683 60.331 0l183.168-183.168 183.168 183.168c16.683 16.683 43.648 16.683 60.331 0s16.683-43.648 0-60.331l-213.333-213.333c-8.32-8.32-19.243-12.501-30.165-12.501zM384 64c-23.552 0-42.667 19.072-42.667 42.667v512c0 117.632 95.701 213.333 213.333 213.333h298.667c23.595 0 42.667-19.115 42.667-42.667s-19.072-42.667-42.667-42.667h-298.667c-70.571 0-128-57.429-128-128v-512c0-23.595-19.115-42.667-42.667-42.667z" />
<glyph unicode="&#xe94b;" glyph-name="corner-left-up" d="M597.333 533.333c-10.923 0-21.845 4.181-30.165 12.501l-183.168 183.168-183.168-183.168c-16.683-16.683-43.648-16.683-60.331 0s-16.683 43.648 0 60.331l213.333 213.333c16.683 16.683 43.648 16.683 60.331 0l213.333-213.333c16.683-16.683 16.683-43.648 0-60.331-8.32-8.32-19.243-12.501-30.165-12.501zM853.333 64h-298.667c-117.632 0-213.333 95.701-213.333 213.333v512c0 23.552 19.115 42.667 42.667 42.667s42.667-19.115 42.667-42.667v-512c0-70.571 57.429-128 128-128h298.667c23.595 0 42.667-19.072 42.667-42.667s-19.072-42.667-42.667-42.667z" />
<glyph unicode="&#xe94c;" glyph-name="corner-right-down" d="M640 64c-10.923 0-21.845 4.181-30.165 12.501l-213.333 213.333c-16.683 16.683-16.683 43.648 0 60.331s43.648 16.683 60.331 0l183.168-183.168 183.168 183.168c16.683 16.683 43.648 16.683 60.331 0s16.683-43.648 0-60.331l-213.333-213.333c-8.32-8.32-19.243-12.501-30.165-12.501zM640 64c-23.595 0-42.667 19.072-42.667 42.667v512c0 70.571-57.429 128-128 128h-298.667c-23.552 0-42.667 19.115-42.667 42.667s19.115 42.667 42.667 42.667h298.667c117.632 0 213.333-95.701 213.333-213.333v-512c0-23.595-19.072-42.667-42.667-42.667z" />
<glyph unicode="&#xe94d;" glyph-name="corner-right-up" d="M853.333 533.333c-10.923 0-21.845 4.181-30.165 12.501l-183.168 183.168-183.168-183.168c-16.683-16.683-43.648-16.683-60.331 0s-16.683 43.648 0 60.331l213.333 213.333c16.683 16.683 43.648 16.683 60.331 0l213.333-213.333c16.683-16.683 16.683-43.648 0-60.331-8.32-8.32-19.243-12.501-30.165-12.501zM469.333 64h-298.667c-23.552 0-42.667 19.072-42.667 42.667s19.115 42.667 42.667 42.667h298.667c70.571 0 128 57.429 128 128v512c0 23.552 19.072 42.667 42.667 42.667s42.667-19.115 42.667-42.667v-512c0-117.632-95.701-213.333-213.333-213.333z" />
<glyph unicode="&#xe94e;" glyph-name="corner-up-left" d="M384 320c-10.923 0-21.845 4.181-30.165 12.501l-213.333 213.333c-16.683 16.683-16.683 43.648 0 60.331l213.333 213.333c16.683 16.683 43.648 16.683 60.331 0s16.683-43.648 0-60.331l-183.168-183.168 183.168-183.168c16.683-16.683 16.683-43.648 0-60.331-8.32-8.32-19.243-12.501-30.165-12.501zM853.333 64c-23.595 0-42.667 19.072-42.667 42.667v298.667c0 70.571-57.429 128-128 128h-512c-23.552 0-42.667 19.115-42.667 42.667s19.115 42.667 42.667 42.667h512c117.632 0 213.333-95.701 213.333-213.333v-298.667c0-23.595-19.072-42.667-42.667-42.667z" />
<glyph unicode="&#xe94f;" glyph-name="corner-up-right" d="M640 320c-10.923 0-21.845 4.181-30.165 12.501-16.683 16.683-16.683 43.648 0 60.331l183.168 183.168-183.168 183.168c-16.683 16.683-16.683 43.648 0 60.331s43.648 16.683 60.331 0l213.333-213.333c16.683-16.683 16.683-43.648 0-60.331l-213.333-213.333c-8.32-8.32-19.243-12.501-30.165-12.501zM170.667 64c-23.552 0-42.667 19.072-42.667 42.667v298.667c0 117.632 95.701 213.333 213.333 213.333h512c23.595 0 42.667-19.115 42.667-42.667s-19.072-42.667-42.667-42.667h-512c-70.571 0-128-57.429-128-128v-298.667c0-23.595-19.115-42.667-42.667-42.667z" />
<glyph unicode="&#xe950;" glyph-name="cpu" d="M768 64h-512c-70.571 0-128 57.429-128 128v512c0 70.571 57.429 128 128 128h512c70.571 0 128-57.429 128-128v-512c0-70.571-57.429-128-128-128zM256 746.667c-23.509 0-42.667-19.157-42.667-42.667v-512c0-23.552 19.157-42.667 42.667-42.667h512c23.552 0 42.667 19.115 42.667 42.667v512c0 23.509-19.115 42.667-42.667 42.667h-512zM640 277.333h-256c-23.552 0-42.667 19.072-42.667 42.667v256c0 23.552 19.115 42.667 42.667 42.667h256c23.595 0 42.667-19.115 42.667-42.667v-256c0-23.595-19.072-42.667-42.667-42.667zM426.667 362.667h170.667v170.667h-170.667v-170.667zM384 746.667c-23.552 0-42.667 19.115-42.667 42.667v128c0 23.552 19.115 42.667 42.667 42.667s42.667-19.115 42.667-42.667v-128c0-23.552-19.115-42.667-42.667-42.667zM640 746.667c-23.595 0-42.667 19.115-42.667 42.667v128c0 23.552 19.072 42.667 42.667 42.667s42.667-19.115 42.667-42.667v-128c0-23.552-19.072-42.667-42.667-42.667zM384-64c-23.552 0-42.667 19.072-42.667 42.667v128c0 23.595 19.115 42.667 42.667 42.667s42.667-19.072 42.667-42.667v-128c0-23.595-19.115-42.667-42.667-42.667zM640-64c-23.595 0-42.667 19.072-42.667 42.667v128c0 23.595 19.072 42.667 42.667 42.667s42.667-19.072 42.667-42.667v-128c0-23.595-19.072-42.667-42.667-42.667zM981.333 533.333h-128c-23.595 0-42.667 19.115-42.667 42.667s19.072 42.667 42.667 42.667h128c23.595 0 42.667-19.115 42.667-42.667s-19.072-42.667-42.667-42.667zM981.333 320h-128c-23.595 0-42.667 19.072-42.667 42.667s19.072 42.667 42.667 42.667h128c23.595 0 42.667-19.072 42.667-42.667s-19.072-42.667-42.667-42.667zM170.667 533.333h-128c-23.552 0-42.667 19.115-42.667 42.667s19.115 42.667 42.667 42.667h128c23.552 0 42.667-19.115 42.667-42.667s-19.115-42.667-42.667-42.667zM170.667 320h-128c-23.552 0-42.667 19.072-42.667 42.667s19.115 42.667 42.667 42.667h128c23.552 0 42.667-19.072 42.667-42.667s-19.115-42.667-42.667-42.667z" />
<glyph unicode="&#xe951;" glyph-name="credit-card" d="M896 64h-768c-70.571 0-128 57.429-128 128v512c0 70.571 57.429 128 128 128h768c70.571 0 128-57.429 128-128v-512c0-70.571-57.429-128-128-128zM128 746.667c-23.509 0-42.667-19.157-42.667-42.667v-512c0-23.552 19.157-42.667 42.667-42.667h768c23.552 0 42.667 19.115 42.667 42.667v512c0 23.509-19.115 42.667-42.667 42.667h-768zM981.333 490.667h-938.667c-23.552 0-42.667 19.115-42.667 42.667s19.115 42.667 42.667 42.667h938.667c23.595 0 42.667-19.115 42.667-42.667s-19.072-42.667-42.667-42.667z" />
<glyph unicode="&#xe952;" glyph-name="crop" d="M981.333 149.333h-640c-70.571 0-128 57.429-128 128l5.547 640.384c0.213 23.424 19.285 42.283 42.667 42.283 0.128 0 0.256 0 0.384 0 23.552-0.213 42.496-19.499 42.283-43.051l-5.547-640c0-23.168 19.157-42.283 42.667-42.283h640c23.595 0 42.667-19.072 42.667-42.667s-19.072-42.667-42.667-42.667zM768-64c-23.595 0-42.667 19.072-42.667 42.667v640c0 23.509-19.115 42.667-42.667 42.667l-639.616-5.547c-0.128 0-0.256 0-0.384 0-23.381 0-42.453 18.859-42.667 42.283-0.213 23.595 18.731 42.837 42.283 43.051l640 5.547c70.955 0 128.384-57.429 128.384-128v-640c0-23.595-19.072-42.667-42.667-42.667z" />
<glyph unicode="&#xe953;" glyph-name="crosshair" d="M512-21.333c-258.773 0-469.333 210.56-469.333 469.333s210.56 469.333 469.333 469.333 469.333-210.56 469.333-469.333-210.56-469.333-469.333-469.333zM512 832c-211.712 0-384-172.288-384-384 0-211.755 172.288-384 384-384 211.755 0 384 172.245 384 384 0 211.712-172.245 384-384 384zM938.667 405.333h-170.667c-23.595 0-42.667 19.115-42.667 42.667s19.072 42.667 42.667 42.667h170.667c23.595 0 42.667-19.115 42.667-42.667s-19.072-42.667-42.667-42.667zM256 405.333h-170.667c-23.552 0-42.667 19.115-42.667 42.667s19.115 42.667 42.667 42.667h170.667c23.552 0 42.667-19.115 42.667-42.667s-19.115-42.667-42.667-42.667zM512 661.333c-23.552 0-42.667 19.115-42.667 42.667v170.667c0 23.552 19.115 42.667 42.667 42.667s42.667-19.115 42.667-42.667v-170.667c0-23.552-19.115-42.667-42.667-42.667zM512-21.333c-23.552 0-42.667 19.072-42.667 42.667v170.667c0 23.595 19.115 42.667 42.667 42.667s42.667-19.072 42.667-42.667v-170.667c0-23.595-19.115-42.667-42.667-42.667z" />
<glyph unicode="&#xe954;" glyph-name="database" d="M512 576c-205.483 0-426.667 53.419-426.667 170.667s221.184 170.667 426.667 170.667 426.667-53.419 426.667-170.667-221.184-170.667-426.667-170.667zM512 832c-224 0-341.333-63.403-341.333-85.333s117.333-85.333 341.333-85.333c223.957 0 341.333 63.403 341.333 85.333s-117.376 85.333-341.333 85.333zM512 277.333c-205.483 0-426.667 53.419-426.667 170.667 0 23.552 19.115 42.667 42.667 42.667s42.667-19.115 42.667-42.667c0-19.883 106.411-85.333 341.333-85.333s341.333 65.451 341.333 85.333c0 23.552 19.072 42.667 42.667 42.667s42.667-19.115 42.667-42.667c0-117.248-221.184-170.667-426.667-170.667zM512-21.333c-205.483 0-426.667 53.419-426.667 170.667v597.333c0 23.552 19.115 42.667 42.667 42.667s42.667-19.115 42.667-42.667v-597.333c0-19.883 106.411-85.333 341.333-85.333s341.333 65.451 341.333 85.333v597.333c0 23.552 19.072 42.667 42.667 42.667s42.667-19.115 42.667-42.667v-597.333c0-117.248-221.184-170.667-426.667-170.667z" />
<glyph unicode="&#xe955;" glyph-name="delete" d="M896 64h-554.667c-12.331 0-24.021 5.291-32.085 14.592l-298.667 341.333c-14.080 16.085-14.080 40.107 0 56.192l298.667 341.333c8.107 9.216 19.755 14.549 32.085 14.549h554.667c70.571 0 128-57.429 128-128v-512c0-70.571-57.429-128-128-128zM360.704 149.333h535.296c23.552 0 42.667 19.115 42.667 42.667v512c0 23.509-19.115 42.667-42.667 42.667h-535.296l-261.333-298.667 261.333-298.667zM512 277.333c-10.923 0-21.845 4.181-30.165 12.501-16.683 16.683-16.683 43.648 0 60.331l256 256c16.683 16.683 43.648 16.683 60.331 0s16.683-43.648 0-60.331l-256-256c-8.32-8.32-19.243-12.501-30.165-12.501zM768 277.333c-10.923 0-21.845 4.181-30.165 12.501l-256 256c-16.683 16.683-16.683 43.648 0 60.331s43.648 16.683 60.331 0l256-256c16.683-16.683 16.683-43.648 0-60.331-8.32-8.32-19.243-12.501-30.165-12.501z" />
<glyph unicode="&#xe956;" glyph-name="disc" d="M512-21.333c-258.773 0-469.333 210.56-469.333 469.333s210.56 469.333 469.333 469.333 469.333-210.56 469.333-469.333-210.56-469.333-469.333-469.333zM512 832c-211.712 0-384-172.288-384-384 0-211.755 172.288-384 384-384 211.755 0 384 172.245 384 384 0 211.712-172.245 384-384 384zM512 277.333c-94.123 0-170.667 76.544-170.667 170.667s76.544 170.667 170.667 170.667c94.123 0 170.667-76.544 170.667-170.667s-76.544-170.667-170.667-170.667zM512 533.333c-47.061 0-85.333-38.272-85.333-85.333s38.272-85.333 85.333-85.333c47.061 0 85.333 38.272 85.333 85.333s-38.272 85.333-85.333 85.333z" />
<glyph unicode="&#xe957;" glyph-name="dollar-sign" d="M512-64c-23.552 0-42.667 19.072-42.667 42.667v938.667c0 23.552 19.115 42.667 42.667 42.667s42.667-19.115 42.667-42.667v-938.667c0-23.595-19.115-42.667-42.667-42.667zM618.667 106.667h-362.667c-23.552 0-42.667 19.072-42.667 42.667s19.115 42.667 42.667 42.667h362.667c58.837 0 106.667 47.829 106.667 106.667s-47.829 106.667-106.667 106.667h-213.333c-105.856 0-192 86.144-192 192s86.144 192 192 192h320c23.595 0 42.667-19.115 42.667-42.667s-19.072-42.667-42.667-42.667h-320c-58.795 0-106.667-47.872-106.667-106.667s47.872-106.667 106.667-106.667h213.333c105.856 0 192-86.144 192-192s-86.144-192-192-192z" />
<glyph unicode="&#xe958;" glyph-name="download" d="M810.667 21.333h-597.333c-70.571 0-128 57.429-128 128v170.667c0 23.595 19.115 42.667 42.667 42.667s42.667-19.072 42.667-42.667v-170.667c0-23.552 19.157-42.667 42.667-42.667h597.333c23.552 0 42.667 19.115 42.667 42.667v170.667c0 23.595 19.072 42.667 42.667 42.667s42.667-19.072 42.667-42.667v-170.667c0-70.571-57.429-128-128-128zM512 277.333c-10.923 0-21.845 4.181-30.165 12.501l-213.333 213.333c-16.683 16.683-16.683 43.648 0 60.331s43.648 16.683 60.331 0l183.168-183.168 183.168 183.168c16.683 16.683 43.648 16.683 60.331 0s16.683-43.648 0-60.331l-213.333-213.333c-8.32-8.32-19.243-12.501-30.165-12.501zM512 277.333c-23.552 0-42.667 19.072-42.667 42.667v512c0 23.552 19.115 42.667 42.667 42.667s42.667-19.115 42.667-42.667v-512c0-23.595-19.115-42.667-42.667-42.667z" />
<glyph unicode="&#xe959;" glyph-name="download-cloud" d="M512 21.333c-10.923 0-21.845 4.181-30.165 12.501l-170.667 170.667c-16.683 16.683-16.683 43.648 0 60.331s43.648 16.683 60.331 0l140.501-140.501 140.501 140.501c16.683 16.683 43.648 16.683 60.331 0s16.683-43.648 0-60.331l-170.667-170.667c-8.32-8.32-19.243-12.501-30.165-12.501zM512 21.333c-23.552 0-42.667 19.072-42.667 42.667v384c0 23.552 19.115 42.667 42.667 42.667s42.667-19.115 42.667-42.667v-384c0-23.595-19.115-42.667-42.667-42.667zM890.923 145.493c-13.397 0-26.624 6.315-34.944 18.133-13.525 19.285-8.917 45.867 10.368 59.477 37.291 26.197 62.123 65.365 69.973 110.293s-2.304 90.155-28.544 127.445c-31.915 45.397-84.053 72.491-139.563 72.491-0.085 0-0.128 0-0.171 0h-53.803c-19.456 0-36.48 13.184-41.344 32.043-40.96 159.531-203.989 256-363.563 215.083-77.227-19.797-142.165-68.565-182.784-137.216s-52.053-149.035-32.213-226.304c11.691-45.653 34.389-88.448 65.621-123.691 15.616-17.664 13.995-44.629-3.627-60.245-17.664-15.573-44.629-13.952-60.245 3.669-40.149 45.355-69.333 100.395-84.395 159.104-25.472 99.328-10.752 202.667 41.472 290.944s135.68 150.955 235.051 176.427c193.963 49.749 392.405-58.709 457.643-244.48h22.144c0.085 0 0.171 0 0.256 0 83.2 0 161.451-40.661 209.323-108.757 39.339-55.893 54.528-123.819 42.795-191.189s-49.024-126.123-104.96-165.461c-7.467-5.248-16.043-7.765-24.491-7.765z" />
<glyph unicode="&#xe95a;" glyph-name="droplet" d="M512.213-21.717c-102.528 0-198.955 39.936-271.445 112.427-72.533 72.491-112.512 168.917-112.555 271.445 0 102.571 39.893 199.040 112.384 271.573 0.256 0.256 0.555 0.512 0.811 0.768l240.427 240.853c7.936 8.021 18.816 12.544 30.165 12.544v0c11.307 0 22.187-4.48 30.165-12.501l241.493-241.493c149.76-149.632 149.845-393.259 0.171-543.061-72.491-72.533-168.917-112.512-271.488-112.555-0.043 0-0.085 0-0.128 0zM300.373 572.8c-56.021-56.363-86.827-131.115-86.827-210.603 0-79.787 31.104-154.752 87.552-211.157 56.405-56.363 131.371-87.424 211.115-87.424 0.043 0 0.043 0 0.085 0 79.787 0 154.752 31.104 211.2 87.552 116.395 116.48 116.352 305.963-0.171 422.357l-211.328 211.328-210.859-211.285c-0.256-0.256-0.555-0.512-0.768-0.768zM270.933 603.733v0z" />
<glyph unicode="&#xe95b;" glyph-name="edit" d="M768-21.333h-597.333c-70.571 0-128 57.429-128 128v597.333c0 70.571 57.429 128 128 128h298.667c23.552 0 42.667-19.115 42.667-42.667s-19.115-42.667-42.667-42.667h-298.667c-23.509 0-42.667-19.157-42.667-42.667v-597.333c0-23.552 19.157-42.667 42.667-42.667h597.333c23.552 0 42.667 19.115 42.667 42.667v298.667c0 23.552 19.072 42.667 42.667 42.667s42.667-19.115 42.667-42.667v-298.667c0-70.571-57.429-128-128-128zM341.333 234.667c-11.179 0-22.059 4.437-30.165 12.501-10.624 10.581-14.848 25.941-11.221 40.491l42.667 170.667c1.877 7.509 5.76 14.336 11.221 19.797l405.333 405.333c50.261 50.347 138.069 50.347 188.331 0 51.925-51.925 51.925-136.405 0-188.331l-405.333-405.333c-5.461-5.461-12.331-9.344-19.797-11.221l-170.667-42.667c-3.456-0.811-6.912-1.237-10.368-1.237zM422.528 426.197l-22.528-90.24 90.197 22.571 396.971 396.971c18.645 18.645 18.645 49.024 0 67.669-18.091 18.091-49.579 18.091-67.669 0v0l-396.971-396.971zM789.333 853.333v0z" />
<glyph unicode="&#xe95c;" glyph-name="edit-2" d="M85.333-21.333c-11.179 0-22.059 4.395-30.165 12.501-10.837 10.837-15.019 26.624-11.008 41.387l64 234.667c1.963 7.168 5.76 13.696 11.008 18.944l576 576c63.659 63.701 167.339 63.701 230.997 0 63.701-63.701 63.701-167.296 0-230.997l-576-576c-5.248-5.248-11.776-9.045-18.944-11.008l-234.667-64c-3.712-0.981-7.467-1.493-11.221-1.493zM187.52 233.813l-41.387-151.723 151.68 41.387 568.021 568.021c30.421 30.421 30.421 79.915 0 110.336s-79.915 30.421-110.336 0l-567.979-568.021zM320 85.333v0z" />
<glyph unicode="&#xe95d;" glyph-name="edit-3" d="M896 64h-384c-23.552 0-42.667 19.072-42.667 42.667s19.115 42.667 42.667 42.667h384c23.595 0 42.667-19.072 42.667-42.667s-19.072-42.667-42.667-42.667zM128 64c-11.179 0-22.059 4.437-30.165 12.501-10.624 10.581-14.848 25.941-11.221 40.491l42.667 170.667c1.877 7.509 5.76 14.379 11.221 19.84l533.333 533.333c50.261 50.347 138.069 50.347 188.331 0 51.925-51.925 51.925-136.405 0-188.331l-533.333-533.333c-5.461-5.461-12.331-9.344-19.797-11.221l-170.667-42.667c-3.456-0.853-6.912-1.28-10.368-1.28zM209.195 255.488l-22.528-90.197 90.197 22.571 524.971 524.971c18.645 18.645 18.645 49.024 0 67.669-18.091 18.091-49.579 18.091-67.669 0v0l-524.971-525.013zM704 810.667v0z" />
<glyph unicode="&#xe95e;" glyph-name="external-link" d="M682.667 21.333h-469.333c-70.571 0-128 57.429-128 128v469.333c0 70.571 57.429 128 128 128h256c23.552 0 42.667-19.115 42.667-42.667s-19.115-42.667-42.667-42.667h-256c-23.509 0-42.667-19.157-42.667-42.667v-469.333c0-23.552 19.157-42.667 42.667-42.667h469.333c23.552 0 42.667 19.115 42.667 42.667v256c0 23.552 19.072 42.667 42.667 42.667s42.667-19.115 42.667-42.667v-256c0-70.571-57.429-128-128-128zM896 533.333c-23.595 0-42.667 19.115-42.667 42.667v213.333h-213.333c-23.595 0-42.667 19.115-42.667 42.667s19.072 42.667 42.667 42.667h256c23.595 0 42.667-19.115 42.667-42.667v-256c0-23.552-19.072-42.667-42.667-42.667zM426.667 320c-10.923 0-21.845 4.181-30.165 12.501-16.683 16.683-16.683 43.648 0 60.331l469.333 469.333c16.683 16.683 43.648 16.683 60.331 0s16.683-43.648 0-60.331l-469.333-469.333c-8.32-8.32-19.243-12.501-30.165-12.501z" />
<glyph unicode="&#xe95f;" glyph-name="eye" d="M512 64c-321.323 0-500.053 350.037-507.52 364.928-6.016 12.032-6.016 26.155 0 38.187 7.467 14.848 186.197 364.885 507.52 364.885s500.053-350.037 507.52-364.928c6.016-12.032 6.016-26.155 0-38.187-7.467-14.848-186.197-364.885-507.52-364.885zM91.392 448.043c39.979-68.608 191.189-298.709 420.608-298.709 230.144 0 380.757 229.931 420.608 298.624-39.979 68.608-191.189 298.709-420.608 298.709-230.144 0-380.757-229.931-420.608-298.624zM512 277.333c-94.123 0-170.667 76.544-170.667 170.667s76.544 170.667 170.667 170.667c94.123 0 170.667-76.544 170.667-170.667s-76.544-170.667-170.667-170.667zM512 533.333c-47.061 0-85.333-38.272-85.333-85.333s38.272-85.333 85.333-85.333c47.061 0 85.333 38.272 85.333 85.333s-38.272 85.333-85.333 85.333z" />
<glyph unicode="&#xe960;" glyph-name="eye-off" d="M512.683 64c-322.005 0-500.736 350.037-508.203 364.928-6.187 12.416-5.973 27.051 0.555 39.253 56.32 104.96 132.907 194.859 227.584 267.179 18.688 14.336 45.525 10.667 59.819-8.021 14.336-18.731 10.752-45.525-7.979-59.819-78.848-60.203-143.701-134.016-192.981-219.563 40.064-68.779 191.232-298.624 420.523-298.624 82.475 1.365 161.408 28.715 227.584 79.147 18.816 14.293 45.483 10.624 59.819-8.064 14.251-18.731 10.624-45.525-8.064-59.819-80.811-61.525-177.109-94.933-278.656-96.597zM889.131 269.227c-9.685 0-19.413 3.285-27.435 9.984-18.048 15.189-20.395 42.112-5.205 60.117 28.459 33.792 53.973 70.272 76.032 108.672-40.021 68.736-191.189 298.667-420.523 298.667-25.813-1.451-53.76-3.029-79.872-9.131-22.869-5.376-45.909 8.875-51.285 31.829s8.875 45.867 31.829 51.243c32.512 7.595 64.981 12.843 99.413 11.392 321.237 0 499.968-350.037 507.435-364.928 6.187-12.373 6.016-27.008-0.555-39.211-27.307-51.029-59.947-99.285-97.109-143.445-8.491-10.027-20.565-15.189-32.725-15.189zM508.672 274.133c-43.307 0-84.395 16.171-116.224 45.824-33.365 31.061-52.608 73.259-54.229 118.827s14.635 89.045 45.696 122.411c2.645 2.816 5.461 5.675 8.448 8.491 17.237 16 44.203 15.147 60.331-2.048 16.085-17.237 15.147-44.245-2.048-60.331-1.451-1.323-2.816-2.731-4.181-4.181-15.659-16.811-23.765-38.528-22.997-61.312 0.811-22.784 10.453-43.861 27.093-59.435 16.725-15.531 39.253-23.893 61.184-22.827 22.784 0.811 43.904 10.411 59.435 27.093 16.128 17.28 43.093 18.176 60.288 2.133 17.237-16.043 18.219-43.051 2.133-60.288-31.104-33.323-73.301-52.565-118.827-54.229-2.005-0.085-4.053-0.128-6.101-0.128zM981.333-64c-10.923 0-21.845 4.181-30.165 12.501l-938.667 938.667c-16.683 16.683-16.683 43.648 0 60.331s43.648 16.683 60.331 0l938.667-938.667c16.683-16.683 16.683-43.648 0-60.331-8.32-8.32-19.243-12.501-30.165-12.501z" />
<glyph unicode="&#xe961;" glyph-name="facebook" d="M597.333-21.333h-170.667c-23.552 0-42.667 19.072-42.667 42.667v298.667h-85.333c-23.552 0-42.667 19.072-42.667 42.667v170.667c0 23.552 19.115 42.667 42.667 42.667h85.333v85.333c0 141.184 114.816 256 256 256h128c23.595 0 42.667-19.115 42.667-42.667v-170.667c0-23.552-19.072-42.667-42.667-42.667h-128v-85.333h128c13.141 0 25.557-6.059 33.621-16.427s10.965-23.851 7.765-36.608l-42.667-170.667c-4.779-18.987-21.803-32.299-41.387-32.299h-85.333v-298.667c0-23.595-19.072-42.667-42.667-42.667zM469.333 64h85.333v298.667c0 23.595 19.072 42.667 42.667 42.667h94.677l21.333 85.333h-116.011c-23.595 0-42.667 19.115-42.667 42.667v128c0 47.061 38.272 85.333 85.333 85.333h85.333v85.333h-85.333c-94.123 0-170.667-76.544-170.667-170.667v-128c0-23.552-19.115-42.667-42.667-42.667h-85.333v-85.333h85.333c23.552 0 42.667-19.072 42.667-42.667v-298.667z" />
<glyph unicode="&#xe962;" glyph-name="fast-forward" d="M554.667 106.667c-6.4 0-12.8 1.408-18.731 4.352-14.635 7.168-23.936 22.016-23.936 38.315v597.333c0 16.299 9.301 31.147 23.936 38.315 14.635 7.125 32.043 5.333 44.971-4.651l384-298.667c10.325-8.064 16.427-20.48 16.427-33.664s-6.101-25.6-16.469-33.707l-384-298.667c-7.637-5.931-16.896-8.96-26.197-8.96zM597.333 659.456v-422.869l271.829 211.413-271.829 211.456zM85.333 106.667c-6.4 0-12.8 1.408-18.731 4.352-14.635 7.168-23.936 22.016-23.936 38.315v597.333c0 16.299 9.301 31.147 23.936 38.315s32.085 5.376 44.928-4.608l384-298.667c10.368-8.107 16.469-20.523 16.469-33.707s-6.101-25.6-16.469-33.707l-384-298.667c-7.637-5.931-16.896-8.96-26.197-8.96zM128 659.456v-422.869l271.829 211.413-271.829 211.456z" />
<glyph unicode="&#xe963;" glyph-name="feather" d="M576 106.667h-362.667c-23.552 0-42.667 19.072-42.667 42.667v362.667c0 11.307 4.48 22.187 12.501 30.165l288 288c116.523 116.523 306.133 116.48 422.571 0s116.437-306.048 0-422.571l-287.531-288.384c-7.979-8.064-18.859-12.544-30.208-12.544zM256 192h302.293l275.072 275.883c0 0 0 0 0.043 0.043 83.2 83.243 83.2 218.667 0 301.909-83.243 83.2-218.667 83.2-301.909 0l-275.499-275.499v-302.336zM85.333-21.333c-10.923 0-21.845 4.181-30.165 12.501-16.683 16.683-16.683 43.648 0 60.331l597.333 597.333c16.683 16.683 43.648 16.683 60.331 0s16.683-43.648 0-60.331l-597.333-597.333c-8.32-8.32-19.243-12.501-30.165-12.501zM746.667 277.333h-362.667c-23.552 0-42.667 19.072-42.667 42.667s19.115 42.667 42.667 42.667h362.667c23.595 0 42.667-19.072 42.667-42.667s-19.072-42.667-42.667-42.667z" />
<glyph unicode="&#xe964;" glyph-name="figma" d="M512 533.333h-149.333c-105.856 0-192 86.144-192 192s86.144 192 192 192h149.333c23.552 0 42.667-19.115 42.667-42.667v-298.667c0-23.552-19.115-42.667-42.667-42.667zM362.667 832c-58.795 0-106.667-47.872-106.667-106.667s47.872-106.667 106.667-106.667h106.667v213.333h-106.667zM661.333 533.333h-149.333c-23.552 0-42.667 19.115-42.667 42.667v298.667c0 23.552 19.115 42.667 42.667 42.667h149.333c105.856 0 192-86.144 192-192s-86.144-192-192-192zM554.667 618.667h106.667c58.837 0 106.667 47.872 106.667 106.667s-47.829 106.667-106.667 106.667h-106.667v-213.333zM661.333 234.667c-105.856 0-192 86.144-192 192s86.144 192 192 192 192-86.144 192-192-86.144-192-192-192zM661.333 533.333c-58.837 0-106.667-47.872-106.667-106.667 0-58.837 47.829-106.667 106.667-106.667s106.667 47.829 106.667 106.667c0 58.795-47.829 106.667-106.667 106.667zM362.667-64c-105.856 0-192 86.144-192 192s86.144 192 192 192h149.333c23.552 0 42.667-19.072 42.667-42.667v-149.333c0-105.856-86.144-192-192-192zM362.667 234.667c-58.795 0-106.667-47.829-106.667-106.667s47.872-106.667 106.667-106.667 106.667 47.829 106.667 106.667v106.667h-106.667zM512 234.667h-149.333c-105.856 0-192 86.144-192 192s86.144 192 192 192h149.333c23.552 0 42.667-19.115 42.667-42.667v-298.667c0-23.595-19.115-42.667-42.667-42.667zM362.667 533.333c-58.795 0-106.667-47.872-106.667-106.667 0-58.837 47.872-106.667 106.667-106.667h106.667v213.333h-106.667z" />
<glyph unicode="&#xe965;" glyph-name="file" d="M768-21.333h-512c-70.571 0-128 57.429-128 128v682.667c0 70.571 57.429 128 128 128h298.667c11.349 0 22.187-4.48 30.165-12.501l298.667-298.667c8.021-7.979 12.501-18.859 12.501-30.165v-469.333c0-70.571-57.429-128-128-128zM256 832c-23.509 0-42.667-19.157-42.667-42.667v-682.667c0-23.552 19.157-42.667 42.667-42.667h512c23.552 0 42.667 19.115 42.667 42.667v451.669l-273.664 273.664h-281.003zM853.333 533.333h-298.667c-23.552 0-42.667 19.115-42.667 42.667v298.667c0 23.552 19.115 42.667 42.667 42.667 23.595 0 42.667-19.115 42.667-42.667v-256h256c23.595 0 42.667-19.115 42.667-42.667s-19.072-42.667-42.667-42.667z" />
<glyph unicode="&#xe966;" glyph-name="file-minus" d="M768-21.333h-512c-70.571 0-128 57.429-128 128v682.667c0 70.571 57.429 128 128 128h341.333c11.349 0 22.187-4.48 30.165-12.501l256-256c8.021-7.979 12.501-18.859 12.501-30.165v-512c0-70.571-57.429-128-128-128zM256 832c-23.509 0-42.667-19.157-42.667-42.667v-682.667c0-23.552 19.157-42.667 42.667-42.667h512c23.552 0 42.667 19.115 42.667 42.667v494.336l-230.997 230.997h-323.669zM853.333 576h-256c-23.595 0-42.667 19.115-42.667 42.667v256c0 23.552 19.072 42.667 42.667 42.667s42.667-19.115 42.667-42.667v-213.333h213.333c23.595 0 42.667-19.115 42.667-42.667s-19.072-42.667-42.667-42.667zM640 277.333h-256c-23.552 0-42.667 19.072-42.667 42.667s19.115 42.667 42.667 42.667h256c23.595 0 42.667-19.072 42.667-42.667s-19.072-42.667-42.667-42.667z" />
<glyph unicode="&#xe967;" glyph-name="file-plus" d="M768-21.333h-512c-70.571 0-128 57.429-128 128v682.667c0 70.571 57.429 128 128 128h341.333c11.349 0 22.187-4.48 30.165-12.501l256-256c8.021-7.979 12.501-18.859 12.501-30.165v-512c0-70.571-57.429-128-128-128zM256 832c-23.509 0-42.667-19.157-42.667-42.667v-682.667c0-23.552 19.157-42.667 42.667-42.667h512c23.552 0 42.667 19.115 42.667 42.667v494.336l-230.997 230.997h-323.669zM853.333 576h-256c-23.595 0-42.667 19.115-42.667 42.667v256c0 23.552 19.072 42.667 42.667 42.667s42.667-19.115 42.667-42.667v-213.333h213.333c23.595 0 42.667-19.115 42.667-42.667s-19.072-42.667-42.667-42.667zM512 149.333c-23.552 0-42.667 19.072-42.667 42.667v256c0 23.552 19.115 42.667 42.667 42.667s42.667-19.115 42.667-42.667v-256c0-23.595-19.115-42.667-42.667-42.667zM640 277.333h-256c-23.552 0-42.667 19.072-42.667 42.667s19.115 42.667 42.667 42.667h256c23.595 0 42.667-19.072 42.667-42.667s-19.072-42.667-42.667-42.667z" />
<glyph unicode="&#xe968;" glyph-name="file-text" d="M768-21.333h-512c-70.571 0-128 57.429-128 128v682.667c0 70.571 57.429 128 128 128h341.333c11.349 0 22.187-4.48 30.165-12.501l256-256c8.021-7.979 12.501-18.859 12.501-30.165v-512c0-70.571-57.429-128-128-128zM256 832c-23.509 0-42.667-19.157-42.667-42.667v-682.667c0-23.552 19.157-42.667 42.667-42.667h512c23.552 0 42.667 19.115 42.667 42.667v494.336l-230.997 230.997h-323.669zM853.333 576h-256c-23.595 0-42.667 19.115-42.667 42.667v256c0 23.552 19.072 42.667 42.667 42.667s42.667-19.115 42.667-42.667v-213.333h213.333c23.595 0 42.667-19.115 42.667-42.667s-19.072-42.667-42.667-42.667zM682.667 362.667h-341.333c-23.552 0-42.667 19.072-42.667 42.667 0 23.552 19.115 42.667 42.667 42.667h341.333c23.595 0 42.667-19.115 42.667-42.667 0-23.595-19.072-42.667-42.667-42.667zM682.667 192h-341.333c-23.552 0-42.667 19.072-42.667 42.667s19.115 42.667 42.667 42.667h341.333c23.595 0 42.667-19.072 42.667-42.667s-19.072-42.667-42.667-42.667zM426.667 533.333h-85.333c-23.552 0-42.667 19.115-42.667 42.667s19.115 42.667 42.667 42.667h85.333c23.552 0 42.667-19.115 42.667-42.667s-19.115-42.667-42.667-42.667z" />
<glyph unicode="&#xe969;" glyph-name="film" d="M845.653-21.333h-667.307c-74.795 0-135.68 60.885-135.68 135.68v667.307c0 74.795 60.885 135.68 135.68 135.68h667.307c74.795 0 135.68-60.885 135.68-135.68v-667.307c0-74.795-60.885-135.68-135.68-135.68zM178.347 832c-27.776 0-50.347-22.571-50.347-50.347v-667.307c0-27.776 22.571-50.347 50.347-50.347h667.307c27.733 0 50.347 22.571 50.347 50.347v667.307c0 27.776-22.571 50.347-50.347 50.347h-667.307zM298.667-21.333c-23.552 0-42.667 19.072-42.667 42.667v853.333c0 23.552 19.115 42.667 42.667 42.667s42.667-19.115 42.667-42.667v-853.333c0-23.595-19.115-42.667-42.667-42.667zM725.333-21.333c-23.595 0-42.667 19.072-42.667 42.667v853.333c0 23.552 19.072 42.667 42.667 42.667s42.667-19.115 42.667-42.667v-853.333c0-23.595-19.072-42.667-42.667-42.667zM938.667 405.333h-853.333c-23.552 0-42.667 19.115-42.667 42.667s19.115 42.667 42.667 42.667h853.333c23.595 0 42.667-19.115 42.667-42.667s-19.072-42.667-42.667-42.667zM298.667 618.667h-213.333c-23.552 0-42.667 19.115-42.667 42.667s19.115 42.667 42.667 42.667h213.333c23.552 0 42.667-19.115 42.667-42.667s-19.115-42.667-42.667-42.667zM298.667 192h-213.333c-23.552 0-42.667 19.072-42.667 42.667s19.115 42.667 42.667 42.667h213.333c23.552 0 42.667-19.072 42.667-42.667s-19.115-42.667-42.667-42.667zM938.667 192h-213.333c-23.595 0-42.667 19.072-42.667 42.667s19.072 42.667 42.667 42.667h213.333c23.595 0 42.667-19.072 42.667-42.667s-19.072-42.667-42.667-42.667zM938.667 618.667h-213.333c-23.595 0-42.667 19.115-42.667 42.667s19.072 42.667 42.667 42.667h213.333c23.595 0 42.667-19.115 42.667-42.667s-19.072-42.667-42.667-42.667z" />
<glyph unicode="&#xe96a;" glyph-name="filter" d="M597.333 21.333c-6.528 0-13.056 1.493-19.072 4.48l-170.667 85.333c-14.464 7.253-23.595 22.016-23.595 38.187v263.424l-331.264 391.68c-10.709 12.672-13.099 30.464-6.101 45.525s22.101 24.704 38.699 24.704h853.333c16.64 0 31.701-9.643 38.699-24.704s4.565-32.853-6.144-45.483l-331.221-391.723v-348.757c0-14.805-7.68-28.501-20.267-36.309-6.827-4.224-14.592-6.357-22.4-6.357zM469.333 175.701l85.333-42.667v295.339c0 10.069 3.584 19.84 10.069 27.563l281.984 333.397h-669.44l281.941-333.397c6.528-7.723 10.112-17.493 10.112-27.563v-252.672z" />
<glyph unicode="&#xe96b;" glyph-name="flag" d="M682.667 234.667c-72.192 0-130.304 23.253-186.539 45.696-50.901 20.395-98.987 39.637-154.795 39.637-104.32 0-141.227-30.891-141.568-31.189-12.629-10.965-31.104-14.037-46.208-7.083-15.232 6.955-25.557 21.547-25.557 38.272v512c0 11.307 4.48 22.187 12.501 30.165 9.216 9.216 62.165 55.168 200.832 55.168 72.192 0 130.304-23.253 186.539-45.696 50.901-20.395 98.987-39.637 154.795-39.637 104.277 0 141.227 30.891 141.568 31.189 12.629 10.923 30.976 13.995 46.251 7.083 15.189-6.955 25.515-21.589 25.515-38.272v-512c0-11.349-4.48-22.187-12.501-30.165-9.216-9.216-62.165-55.168-200.832-55.168zM341.333 405.333c72.192 0 130.304-23.253 186.539-45.696 50.901-20.395 98.987-39.637 154.795-39.637 69.675 0 109.312 13.781 128 23.040v420.437c-30.763-9.472-72.491-16.811-128-16.811-72.192 0-130.304 23.253-186.539 45.696-50.901 20.395-98.987 39.637-154.795 39.637-69.675 0-109.269-13.781-128-23.040v-420.437c30.72 9.429 72.491 16.811 128 16.811zM170.667-21.333c-23.552 0-42.667 19.072-42.667 42.667v298.667c0 23.595 19.115 42.667 42.667 42.667s42.667-19.072 42.667-42.667v-298.667c0-23.595-19.115-42.667-42.667-42.667z" />
<glyph unicode="&#xe96c;" glyph-name="folder" d="M853.333 21.333h-682.667c-70.571 0-128 57.429-128 128v597.333c0 70.571 57.429 128 128 128h213.333c14.251 0 27.563-7.125 35.499-18.987l72.661-109.013h361.173c70.571 0 128-57.429 128-128v-469.333c0-70.571-57.429-128-128-128zM170.667 789.333c-23.509 0-42.667-19.157-42.667-42.667v-597.333c0-23.552 19.157-42.667 42.667-42.667h682.667c23.552 0 42.667 19.115 42.667 42.667v469.333c0 23.509-19.115 42.667-42.667 42.667h-384c-14.251 0-27.563 7.125-35.499 18.987l-72.661 109.013h-190.507z" />
<glyph unicode="&#xe96d;" glyph-name="folder-minus" d="M853.333 21.333h-682.667c-70.571 0-128 57.429-128 128v597.333c0 70.571 57.429 128 128 128h213.333c14.251 0 27.563-7.125 35.499-18.987l72.661-109.013h361.173c70.571 0 128-57.429 128-128v-469.333c0-70.571-57.429-128-128-128zM170.667 789.333c-23.509 0-42.667-19.157-42.667-42.667v-597.333c0-23.552 19.157-42.667 42.667-42.667h682.667c23.552 0 42.667 19.115 42.667 42.667v469.333c0 23.509-19.115 42.667-42.667 42.667h-384c-14.251 0-27.563 7.125-35.499 18.987l-72.661 109.013h-190.507zM640 320h-256c-23.552 0-42.667 19.072-42.667 42.667s19.115 42.667 42.667 42.667h256c23.595 0 42.667-19.072 42.667-42.667s-19.072-42.667-42.667-42.667z" />
<glyph unicode="&#xe96e;" glyph-name="folder-plus" d="M853.333 21.333h-682.667c-70.571 0-128 57.429-128 128v597.333c0 70.571 57.429 128 128 128h213.333c14.251 0 27.563-7.125 35.499-18.987l72.661-109.013h361.173c70.571 0 128-57.429 128-128v-469.333c0-70.571-57.429-128-128-128zM170.667 789.333c-23.509 0-42.667-19.157-42.667-42.667v-597.333c0-23.552 19.157-42.667 42.667-42.667h682.667c23.552 0 42.667 19.115 42.667 42.667v469.333c0 23.509-19.115 42.667-42.667 42.667h-384c-14.251 0-27.563 7.125-35.499 18.987l-72.661 109.013h-190.507zM512 192c-23.552 0-42.667 19.072-42.667 42.667v256c0 23.552 19.115 42.667 42.667 42.667s42.667-19.115 42.667-42.667v-256c0-23.595-19.115-42.667-42.667-42.667zM640 320h-256c-23.552 0-42.667 19.072-42.667 42.667s19.115 42.667 42.667 42.667h256c23.595 0 42.667-19.072 42.667-42.667s-19.072-42.667-42.667-42.667z" />
<glyph unicode="&#xe96f;" glyph-name="framer" d="M512-64c-11.093 0-22.016 4.352-30.165 12.501l-298.667 298.667c-4.096 4.139-7.211 8.832-9.301 13.909-2.048 4.949-3.2 10.411-3.2 16.128v0c0 0.043 0 0.085 0 0.128v298.667c0 23.552 19.115 42.667 42.667 42.667h195.669l-225.835 225.835c-12.203 12.203-15.872 30.549-9.259 46.507 6.613 15.915 22.187 26.325 39.424 26.325h597.333c23.595 0 42.667-19.115 42.667-42.667v-298.667c0-23.552-19.072-42.667-42.667-42.667h-195.669l225.835-225.835c12.203-12.203 15.872-30.549 9.259-46.507-6.571-15.957-22.187-26.325-39.424-26.325h-256v-256c0-17.237-10.411-32.853-26.325-39.424-5.291-2.219-10.837-3.243-16.341-3.243zM316.331 234.667l153.003-153.003v153.003h-153.003zM512 320h195.669l-213.333 213.333h-238.336v-213.333h256zM529.664 618.667h238.336v213.333h-451.669l213.333-213.333z" />
<glyph unicode="&#xe970;" glyph-name="frown" d="M512-21.333c-258.773 0-469.333 210.56-469.333 469.333s210.56 469.333 469.333 469.333 469.333-210.56 469.333-469.333-210.56-469.333-469.333-469.333zM512 832c-211.712 0-384-172.288-384-384 0-211.755 172.288-384 384-384 211.755 0 384 172.245 384 384 0 211.712-172.245 384-384 384zM682.709 234.667c-12.928 0-25.685 5.845-34.048 16.896-1.28 1.664-54.101 68.437-136.661 68.437-83.115 0-136.149-67.797-136.704-68.437-14.293-18.645-41.003-22.229-59.691-8.064-18.688 14.123-22.485 40.661-8.405 59.435 3.115 4.181 78.251 102.4 204.8 102.4s201.685-98.219 204.8-102.4c14.165-18.816 10.325-45.568-8.533-59.691-7.68-5.803-16.64-8.576-25.557-8.576zM384.427 533.333c-23.552 0-42.88 19.115-42.88 42.667s18.901 42.667 42.453 42.667h0.427c23.552 0 42.667-19.115 42.667-42.667s-19.115-42.667-42.667-42.667zM640.427 533.333c-23.595 0-42.88 19.115-42.88 42.667s18.859 42.667 42.453 42.667h0.427c23.595 0 42.667-19.115 42.667-42.667s-19.072-42.667-42.667-42.667z" />
<glyph unicode="&#xe971;" glyph-name="gift" d="M853.333-21.333h-682.667c-23.552 0-42.667 19.072-42.667 42.667v426.667c0 23.552 19.115 42.667 42.667 42.667s42.667-19.115 42.667-42.667v-384h597.333v384c0 23.552 19.072 42.667 42.667 42.667s42.667-19.115 42.667-42.667v-426.667c0-23.595-19.072-42.667-42.667-42.667zM938.667 405.333h-853.333c-23.552 0-42.667 19.115-42.667 42.667v213.333c0 23.552 19.115 42.667 42.667 42.667h853.333c23.595 0 42.667-19.115 42.667-42.667v-213.333c0-23.552-19.072-42.667-42.667-42.667zM128 490.667h768v128h-768v-128zM512-21.333c-23.552 0-42.667 19.072-42.667 42.667v640c0 23.552 19.115 42.667 42.667 42.667s42.667-19.115 42.667-42.667v-640c0-23.595-19.115-42.667-42.667-42.667zM512 618.667h-192c-82.347 0-149.333 66.987-149.333 149.333s66.987 149.333 149.333 149.333c182.229 0 231.808-237.525 233.813-247.637 2.517-12.544-0.725-25.557-8.832-35.413-8.107-9.899-20.181-15.616-32.981-15.616zM320 832c-35.285 0-64-28.715-64-64s28.715-64 64-64h134.571c-20.096 52.949-61.483 128-134.571 128zM704 618.667h-192c-12.8 0-24.875 5.717-32.981 15.616-8.107 9.856-11.349 22.869-8.832 35.413 2.005 10.112 51.584 247.637 233.813 247.637 82.347 0 149.333-66.987 149.333-149.333s-66.987-149.333-149.333-149.333zM569.429 704h134.571c35.285 0 64 28.715 64 64s-28.715 64-64 64c-73.088 0-114.517-75.051-134.571-128z" />
<glyph unicode="&#xe972;" glyph-name="git-branch" d="M256 277.333c-23.552 0-42.667 19.072-42.667 42.667v512c0 23.552 19.115 42.667 42.667 42.667s42.667-19.115 42.667-42.667v-512c0-23.595-19.115-42.667-42.667-42.667zM768 533.333c-94.123 0-170.667 76.544-170.667 170.667s76.544 170.667 170.667 170.667 170.667-76.544 170.667-170.667-76.544-170.667-170.667-170.667zM768 789.333c-47.061 0-85.333-38.272-85.333-85.333s38.272-85.333 85.333-85.333 85.333 38.272 85.333 85.333-38.272 85.333-85.333 85.333zM256 21.333c-94.123 0-170.667 76.544-170.667 170.667s76.544 170.667 170.667 170.667 170.667-76.544 170.667-170.667-76.544-170.667-170.667-170.667zM256 277.333c-47.061 0-85.333-38.272-85.333-85.333s38.272-85.333 85.333-85.333 85.333 38.272 85.333 85.333-38.272 85.333-85.333 85.333zM384 149.333c-23.552 0-42.667 19.072-42.667 42.667s19.115 42.667 42.667 42.667c188.203 0 341.333 153.131 341.333 341.333 0 23.552 19.072 42.667 42.667 42.667s42.667-19.115 42.667-42.667c0-235.264-191.403-426.667-426.667-426.667z" />
<glyph unicode="&#xe973;" glyph-name="git-commit" d="M512 234.667c-117.632 0-213.333 95.701-213.333 213.333s95.701 213.333 213.333 213.333 213.333-95.701 213.333-213.333-95.701-213.333-213.333-213.333zM512 576c-70.571 0-128-57.429-128-128s57.429-128 128-128 128 57.429 128 128-57.429 128-128 128zM298.667 405.333h-253.867c-23.552 0-42.667 19.115-42.667 42.667s19.115 42.667 42.667 42.667h253.867c23.552 0 42.667-19.115 42.667-42.667s-19.115-42.667-42.667-42.667zM979.627 405.333h-253.867c-23.595 0-42.667 19.115-42.667 42.667s19.072 42.667 42.667 42.667h253.867c23.595 0 42.667-19.115 42.667-42.667s-19.072-42.667-42.667-42.667z" />
</font>
</defs>
</svg>
